  0
SECTION
  2
HEADER
  9
$ACADVER
  1
AC1015
  9
$ACADMAINTVER
 70
     6
  9
$DWGCODEPAGE
  3
ANSI_1252
  9
$INSBASE
 10
0.0
 20
0.0
 30
0.0
  9
$EXTMIN
 10
0.0
 20
0.0
 30
0.0
  9
$EXTMAX
 10
431.8
 20
279.4
 30
0.0
  9
$LIMMIN
 10
0.0
 20
0.0
  9
$LIMMAX
 10
431.8
 20
279.4
  9
$ORTHOMODE
 70
     0
  9
$REGENMODE
 70
     1
  9
$FILLMODE
 70
     1
  9
$QTEXTMODE
 70
     0
  9
$MIRRTEXT
 70
     1
  9
$LTSCALE
 40
1.0
  9
$ATTMODE
 70
     1
  9
$TEXTSIZE
 40
3.175
  9
$TRACEWID
 40
1.0
  9
$TEXTSTYLE
  7
Standard
  9
$CLAYER
  8
0
  9
$CELTYPE
  6
ByLayer
  9
$CECOLOR
 62
   256
  9
$CELTSCALE
 40
1.0
  9
$DISPSILH
 70
     0
  9
$DIMSCALE
 40
1.0
  9
$DIMASZ
 40
3.302
  9
$DIMEXO
 40
1.27
  9
$DIMDLI
 40
3.75
  9
$DIMRND
 40
0.0
  9
$DIMDLE
 40
0.0
  9
$DIMEXE
 40
3.175
  9
$DIMTP
 40
0.0
  9
$DIMTM
 40
0.0
  9
$DIMTXT
 40
3.175
  9
$DIMCEN
 40
2.5
  9
$DIMTSZ
 40
0.0
  9
$DIMTOL
 70
     0
  9
$DIMLIM
 70
     0
  9
$DIMTIH
 70
     1
  9
$DIMTOH
 70
     1
  9
$DIMSE1
 70
     0
  9
$DIMSE2
 70
     0
  9
$DIMTAD
 70
     0
  9
$DIMZIN
 70
     0
  9
$DIMBLK
  1

  9
$DIMASO
 70
     1
  9
$DIMSHO
 70
     1
  9
$DIMPOST
  1

  9
$DIMAPOST
  1

  9
$DIMALT
 70
     0
  9
$DIMALTD
 70
     3
  9
$DIMALTF
 40
0.0393700787
  9
$DIMLFAC
 40
1.0
  9
$DIMTOFL
 70
     1
  9
$DIMTVP
 40
0.0
  9
$DIMTIX
 70
     0
  9
$DIMSOXD
 70
     0
  9
$DIMSAH
 70
     0
  9
$DIMBLK1
  1

  9
$DIMBLK2
  1

  9
$DIMSTYLE
  2
ISO-25
  9
$DIMCLRD
 70
     0
  9
$DIMCLRE
 70
     0
  9
$DIMCLRT
 70
     0
  9
$DIMTFAC
 40
1.0
  9
$DIMGAP
 40
1.524
  9
$DIMJUST
 70
     0
  9
$DIMSD1
 70
     0
  9
$DIMSD2
 70
     0
  9
$DIMTOLJ
 70
     0
  9
$DIMTZIN
 70
     0
  9
$DIMALTZ
 70
     0
  9
$DIMALTTZ
 70
     0
  9
$DIMUPT
 70
     0
  9
$DIMDEC
 70
     2
  9
$DIMTDEC
 70
     2
  9
$DIMALTU
 70
     2
  9
$DIMALTTD
 70
     3
  9
$DIMTXSTY
  7
Standard
  9
$DIMAUNIT
 70
     0
  9
$DIMADEC
 70
     2
  9
$DIMALTRND
 40
0.0
  9
$DIMAZIN
 70
     0
  9
$DIMDSEP
 70
    44
  9
$DIMATFIT
 70
     3
  9
$DIMFRAC
 70
     0
  9
$DIMLDRBLK
  1

  9
$DIMLUNIT
 70
     2
  9
$DIMLWD
 70
    -2
  9
$DIMLWE
 70
    -2
  9
$DIMTMOVE
 70
     0
  9
$LUNITS
 70
     2
  9
$LUPREC
 70
     2
  9
$SKETCHINC
 40
1.0
  9
$FILLETRAD
 40
10.0
  9
$AUNITS
 70
     0
  9
$AUPREC
 70
     2
  9
$MENU
  1
.
  9
$ELEVATION
 40
0.0
  9
$PELEVATION
 40
0.0
  9
$THICKNESS
 40
0.0
  9
$LIMCHECK
 70
     0
  9
$CHAMFERA
 40
0.0
  9
$CHAMFERB
 40
0.0
  9
$CHAMFERC
 40
0.0
  9
$CHAMFERD
 40
0.0
  9
$SKPOLY
 70
     0
  9
$TDCREATE
 40
2458029.630980069
  9
$TDUCREATE
 40
2458029.797646736
  9
$TDUPDATE
 40
2458029.630980463
  9
$TDUUPDATE
 40
2458029.79764713
  9
$TDINDWG
 40
0.0000000116
  9
$TDUSRTIMER
 40
0.0000000116
  9
$USRTIMER
 70
     1
  9
$ANGBASE
 50
0.0
  9
$ANGDIR
 70
     0
  9
$PDMODE
 70
     0
  9
$PDSIZE
 40
-1.0
  9
$PLINEWID
 40
0.0
  9
$SPLFRAME
 70
     0
  9
$SPLINETYPE
 70
     6
  9
$SPLINESEGS
 70
     8
  9
$HANDSEED
  5
A2
  9
$SURFTAB1
 70
     6
  9
$SURFTAB2
 70
     6
  9
$SURFTYPE
 70
     6
  9
$SURFU
 70
     6
  9
$SURFV
 70
     6
  9
$UCSBASE
  2

  9
$UCSNAME
  2

  9
$UCSORG
 10
0.0
 20
0.0
 30
0.0
  9
$UCSXDIR
 10
1.0
 20
0.0
 30
0.0
  9
$UCSYDIR
 10
0.0
 20
1.0
 30
0.0
  9
$UCSORTHOREF
  2

  9
$UCSORTHOVIEW
 70
     0
  9
$UCSORGTOP
 10
0.0
 20
0.0
 30
0.0
  9
$UCSORGBOTTOM
 10
0.0
 20
0.0
 30
0.0
  9
$UCSORGLEFT
 10
0.0
 20
0.0
 30
0.0
  9
$UCSORGRIGHT
 10
0.0
 20
0.0
 30
0.0
  9
$UCSORGFRONT
 10
0.0
 20
0.0
 30
0.0
  9
$UCSORGBACK
 10
0.0
 20
0.0
 30
0.0
  9
$PUCSBASE
  2

  9
$PUCSNAME
  2

  9
$PUCSORG
 10
0.0
 20
0.0
 30
0.0
  9
$PUCSXDIR
 10
1.0
 20
0.0
 30
0.0
  9
$PUCSYDIR
 10
0.0
 20
1.0
 30
0.0
  9
$PUCSORTHOREF
  2

  9
$PUCSORTHOVIEW
 70
     0
  9
$PUCSORGTOP
 10
0.0
 20
0.0
 30
0.0
  9
$PUCSORGBOTTOM
 10
0.0
 20
0.0
 30
0.0
  9
$PUCSORGLEFT
 10
0.0
 20
0.0
 30
0.0
  9
$PUCSORGRIGHT
 10
0.0
 20
0.0
 30
0.0
  9
$PUCSORGFRONT
 10
0.0
 20
0.0
 30
0.0
  9
$PUCSORGBACK
 10
0.0
 20
0.0
 30
0.0
  9
$USERI1
 70
     0
  9
$USERI2
 70
     0
  9
$USERI3
 70
     0
  9
$USERI4
 70
     0
  9
$USERI5
 70
     0
  9
$USERR1
 40
0.0
  9
$USERR2
 40
0.0
  9
$USERR3
 40
0.0
  9
$USERR4
 40
0.0
  9
$USERR5
 40
0.0
  9
$WORLDVIEW
 70
     1
  9
$SHADEDGE
 70
     3
  9
$SHADEDIF
 70
    70
  9
$TILEMODE
 70
     1
  9
$MAXACTVP
 70
    64
  9
$PINSBASE
 10
0.0
 20
0.0
 30
0.0
  9
$PLIMCHECK
 70
     0
  9
$PEXTMIN
 10
1.0000000000E+20
 20
1.0000000000E+20
 30
1.0000000000E+20
  9
$PEXTMAX
 10
-1.0000000000E+20
 20
-1.0000000000E+20
 30
-1.0000000000E+20
  9
$PLIMMIN
 10
0.0
 20
0.0
  9
$PLIMMAX
 10
420.0
 20
297.0
  9
$UNITMODE
 70
     0
  9
$VISRETAIN
 70
     1
  9
$PLINEGEN
 70
     0
  9
$PSLTSCALE
 70
     1
  9
$TREEDEPTH
 70
  3020
  9
$CMLSTYLE
  2
Standard
  9
$CMLJUST
 70
     0
  9
$CMLSCALE
 40
20.0
  9
$PROXYGRAPHICS
 70
     1
  9
$MEASUREMENT
 70
     1
  9
$CELWEIGHT
370
    -1
  9
$ENDCAPS
280
     0
  9
$JOINSTYLE
280
     0
  9
$LWDISPLAY
290
     1
  9
$INSUNITS
 70
     4
  9
$HYPERLINKBASE
  1

  9
$STYLESHEET
  1

  9
$XEDIT
290
     1
  9
$CEPSNTYPE
380
     0
  9
$PSTYLEMODE
290
     1
  9
$FINGERPRINTGUID
  2
{31AE1617-3E1C-4E99-A92E-CEA2E6914293}
  9
$VERSIONGUID
  2
{FAEB1C32-E019-11D5-929B-00C0DF256EC4}
  9
$EXTNAMES
290
     1
  9
$PSVPSCALE
 40
0.0
  9
$OLESTARTUP
290
     0
  0
ENDSEC
  0
SECTION
  2
CLASSES
  0
CLASS
  1
ACDBDICTIONARYWDFLT
  2
AcDbDictionaryWithDefault
  3
ObjectDBX Classes
 90
        0
280
     0
281
     0
  0
CLASS
  1
VISUALSTYLE
  2
AcDbVisualStyle
  3
ObjectDBX Classes
 90
     4095
280
     0
281
     0
  0
CLASS
  1
MATERIAL
  2
AcDbMaterial
  3
ObjectDBX Classes
 90
     1153
280
     0
281
     0
  0
CLASS
  1
SCALE
  2
AcDbScale
  3
ObjectDBX Classes
 90
     1153
280
     0
281
     0
  0
CLASS
  1
TABLESTYLE
  2
AcDbTableStyle
  3
ObjectDBX Classes
 90
     4095
280
     0
281
     0
  0
CLASS
  1
MLEADERSTYLE
  2
AcDbMLeaderStyle
  3
ACDB_MLEADERSTYLE_CLASS
 90
     4095
280
     0
281
     0
  0
CLASS
  1
SUN
  2
AcDbSun
  3
SCENEOE
 90
     1153
280
     0
281
     0
  0
CLASS
  1
ACDBPLACEHOLDER
  2
AcDbPlaceHolder
  3
ObjectDBX Classes
 90
        0
280
     0
281
     0
  0
CLASS
  1
LAYOUT
  2
AcDbLayout
  3
ObjectDBX Classes
 90
        0
280
     0
281
     0
  0
ENDSEC
  0
SECTION
  2
TABLES
  0
TABLE
  2
VPORT
  5
8
330
0
100
AcDbSymbolTable
 70
     1
  0
VPORT
  5
29
330
8
100
AcDbSymbolTableRecord
100
AcDbViewportTableRecord
  2
*Active
 70
     0
 10
0.0
 20
0.0
 11
1.0
 21
1.0
 12
215.9
 22
139.7
 13
0.0
 23
0.0
 14
10.0
 24
10.0
 15
10.0
 25
10.0
 16
0.0
 26
0.0
 36
1.0
 17
0.0
 27
0.0
 37
0.0
 40
279.4
 41
1.5454545455
 42
50.0
 43
0.0
 44
0.0
 50
0.0
 51
0.0
 71
     0
 72
  2000
 73
     1
 74
     3
 75
     0
 76
     0
 77
     0
 78
     0
281
     0
 65
     1
110
0.0
120
0.0
130
0.0
111
1.0
121
0.0
131
0.0
112
0.0
122
1.0
132
0.0
 79
     0
146
0.0
  0
ENDTAB
  0
TABLE
  2
LTYPE
  5
5
330
0
100
AcDbSymbolTable
 70
     6
  0
LTYPE
  5
14
330
5
100
AcDbSymbolTableRecord
100
AcDbLinetypeTableRecord
  2
ByBlock
 70
     0
  3

 72
    65
 73
     0
 40
0.0
  0
LTYPE
  5
15
330
5
100
AcDbSymbolTableRecord
100
AcDbLinetypeTableRecord
  2
ByLayer
 70
     0
  3

 72
    65
 73
     0
 40
0.0
  0
LTYPE
  5
16
330
5
100
AcDbSymbolTableRecord
100
AcDbLinetypeTableRecord
  2
Continuous
 70
     0
  3
Solid line
 72
    65
 73
     0
 40
0.0
  0
LTYPE
  5
6E
330
5
100
AcDbSymbolTableRecord
100
AcDbLinetypeTableRecord
  2
HIDDEN
 70
     0
  3
Hidden __ __ __ __ __ __ __ __ __ __ __ __ __ __
 72
    65
 73
     2
 40
1.905
 49
1.27
 74
     0
 49
-0.635
 74
     0
  0
LTYPE
  5
6F
330
5
100
AcDbSymbolTableRecord
100
AcDbLinetypeTableRecord
  2
PHANTOM
 70
     0
  3
Phantom ______  __  __  ______  __  __  ______
 72
    65
 73
     6
 40
12.7
 49
6.35
 74
     0
 49
-1.27
 74
     0
 49
1.27
 74
     0
 49
-1.27
 74
     0
 49
1.27
 74
     0
 49
-1.27
 74
     0
  0
LTYPE
  5
70
330
5
100
AcDbSymbolTableRecord
100
AcDbLinetypeTableRecord
  2
CENTER
 70
     0
  3
Center ____ _ ____ _ ____ _ ____ _ ____ _ ____
 72
    65
 73
     4
 40
10.16
 49
6.35
 74
     0
 49
-1.27
 74
     0
 49
1.27
 74
     0
 49
-1.27
 74
     0
  0
LTYPE
  5
71
330
5
100
AcDbSymbolTableRecord
100
AcDbLinetypeTableRecord
  2
CENTERX2
 70
     0
  3
Center (2x) ________  __  ________  __  _____
 72
    65
 73
     4
 40
20.32
 49
12.7
 74
     0
 49
-2.54
 74
     0
 49
2.54
 74
     0
 49
-2.54
 74
     0
  0
LTYPE
  5
72
330
5
100
AcDbSymbolTableRecord
100
AcDbLinetypeTableRecord
  2
DOT2
 70
     0
  3
Dot (.5x) ........................................
 72
    65
 73
     2
 40
0.635
 49
0.0
 74
     0
 49
-0.635
 74
     0
  0
ENDTAB
  0
TABLE
  2
LAYER
  5
2
330
0
100
AcDbSymbolTable
 70
     1
  0
LAYER
  5
10
330
2
100
AcDbSymbolTableRecord
100
AcDbLayerTableRecord
  2
0
 70
     0
 62
     7
  6
Continuous
370
    -3
390
F
  0
ENDTAB
  0
TABLE
  2
STYLE
  5
3
330
0
100
AcDbSymbolTable
 70
     2
  0
STYLE
  5
11
330
3
100
AcDbSymbolTableRecord
100
AcDbTextStyleTableRecord
  2
Standard
 70
     0
 40
0.0
 41
1.0
 50
0.0
 71
     0
 42
3.175
  3
txt
  4

  0
STYLE
  5
75
330
3
100
AcDbSymbolTableRecord
100
AcDbTextStyleTableRecord
  2
SLDTEXTSTYLE0
 70
     0
 40
0.0
 41
0.75
 50
0.0
 71
     0
 42
3.175
  3
TXT
  4

  0
ENDTAB
  0
TABLE
  2
VIEW
  5
6
330
0
100
AcDbSymbolTable
 70
     0
  0
ENDTAB
  0
TABLE
  2
UCS
  5
7
330
0
100
AcDbSymbolTable
 70
     0
  0
ENDTAB
  0
TABLE
  2
APPID
  5
9
330
0
100
AcDbSymbolTable
 70
     1
  0
APPID
  5
12
330
9
100
AcDbSymbolTableRecord
100
AcDbRegAppTableRecord
  2
ACAD
 70
     0
  0
ENDTAB
  0
TABLE
  2
DIMSTYLE
  5
A
330
0
100
AcDbSymbolTable
 70
     2
100
AcDbDimStyleTable
  0
DIMSTYLE
105
27
330
A
100
AcDbSymbolTableRecord
100
AcDbDimStyleTableRecord
  2
ISO-25
 70
     0
 41
2.5
 42
0.625
 43
3.75
 44
1.25
 73
     0
 74
     0
 77
     1
 78
     8
140
2.5
141
2.5
143
0.0393700787
147
0.625
171
     3
172
     1
178
     0
271
     2
272
     2
274
     3
278
    44
283
     0
284
     8
340
11
  0
DIMSTYLE
105
76
102
{ACAD_REACTORS
330
74
102
}
330
A
100
AcDbSymbolTableRecord
100
AcDbDimStyleTableRecord
  2
SLDDIMSTYLE0
 70
     0
 41
3.302
 44
0.0
 45
0.000000001
 78
    12
 79
     3
140
3.175
147
0.79375
173
     1
178
     0
271
     2
272
     2
276
     2
284
    12
340
75
  0
ENDTAB
  0
TABLE
  2
BLOCK_RECORD
  5
1
330
0
100
AcDbSymbolTable
 70
     2
  0
BLOCK_RECORD
  5
1F
330
1
100
AcDbSymbolTableRecord
100
AcDbBlockTableRecord
  2
*Model_Space
340
22
  0
BLOCK_RECORD
  5
1B
330
1
100
AcDbSymbolTableRecord
100
AcDbBlockTableRecord
  2
*Paper_Space
340
1E
  0
BLOCK_RECORD
  5
23
330
1
100
AcDbSymbolTableRecord
100
AcDbBlockTableRecord
  2
*Paper_Space0
340
26
  0
BLOCK_RECORD
  5
77
330
1
100
AcDbSymbolTableRecord
100
AcDbBlockTableRecord
  2
_D
340
0
  0
ENDTAB
  0
ENDSEC
  0
SECTION
  2
BLOCKS
  0
BLOCK
  5
20
330
1F
100
AcDbEntity
  8
0
100
AcDbBlockBegin
  2
*Model_Space
 70
     0
 10
0.0
 20
0.0
 30
0.0
  3
*Model_Space
  1

  0
ENDBLK
  5
21
330
1F
100
AcDbEntity
  8
0
100
AcDbBlockEnd
  0
BLOCK
  5
1C
330
1B
100
AcDbEntity
 67
     1
  8
0
100
AcDbBlockBegin
  2
*Paper_Space
 70
     0
 10
0.0
 20
0.0
 30
0.0
  3
*Paper_Space
  1

  0
ENDBLK
  5
1D
330
1B
100
AcDbEntity
 67
     1
  8
0
100
AcDbBlockEnd
  0
BLOCK
  5
24
330
23
100
AcDbEntity
  8
0
100
AcDbBlockBegin
  2
*Paper_Space0
 70
     0
 10
0.0
 20
0.0
 30
0.0
  3
*Paper_Space0
  1

  0
ENDBLK
  5
25
330
23
100
AcDbEntity
  8
0
100
AcDbBlockEnd
  0
BLOCK
  5
78
330
77
100
AcDbEntity
  8
0
100
AcDbBlockBegin
  2
_D
 70
     0
 10
0.0
 20
0.0
 30
0.0
  3
_D
  1

  0
SOLID
  5
7A
330
77
100
AcDbEntity
  8
0
  6
Continuous
 62
     7
370
    18
100
AcDbTrace
 10
269.8219525645
 20
169.2510250645
 30
0.0
 11
269.3139525645
 21
165.9490250645
 31
0.0
 12
270.3299525645
 22
165.9490250645
 32
0.0
 13
270.3299525645
 23
165.9490250645
 33
0.0
  0
SOLID
  5
7B
330
77
100
AcDbEntity
  8
0
  6
Continuous
 62
     7
370
    18
100
AcDbTrace
 10
269.8219525645
 20
119.2510250645
 30
0.0
 11
270.3299525645
 21
122.5530250645
 31
0.0
 12
269.3139525645
 22
122.5530250645
 32
0.0
 13
269.3139525645
 23
122.5530250645
 33
0.0
  0
LINE
  5
7C
330
77
100
AcDbEntity
  8
0
  6
Continuous
 62
     7
370
    18
100
AcDbLine
 10
250.3442658908
 20
169.2510250645
 30
0.0
 11
272.9969525645
 21
169.2510250645
 31
0.0
  0
LINE
  5
7D
330
77
100
AcDbEntity
  8
0
  6
Continuous
 62
     7
370
    18
100
AcDbLine
 10
250.3442658908
 20
119.2510250645
 30
0.0
 11
272.9969525645
 21
119.2510250645
 31
0.0
  0
LINE
  5
7E
330
77
100
AcDbEntity
  8
0
  6
Continuous
 62
     7
370
    18
100
AcDbLine
 10
269.8219525645
 20
169.2510250645
 30
0.0
 11
269.8219525645
 21
150.0558529232
 31
0.0
  0
LINE
  5
7F
330
77
100
AcDbEntity
  8
0
  6
Continuous
 62
     7
370
    18
100
AcDbLine
 10
269.8219525645
 20
119.2510250645
 30
0.0
 11
269.8219525645
 21
145.0155402716
 31
0.0
  0
MTEXT
  5
80
330
77
100
AcDbEntity
  8
0
  6
Continuous
 62
     7
370
    18
100
AcDbMText
 10
267.4759803357
 20
149.1083306946
 30
0.0
 40
3.175
 41
0.0
 71
     1
 72
     1
  1
50
  7
SLDTEXTSTYLE0
 73
     1
 44
1.0
  0
ENDBLK
  5
79
330
77
100
AcDbEntity
  8
0
100
AcDbBlockEnd
  0
ENDSEC
  0
SECTION
  2
ENTITIES
  0
LINE
  5
73
330
1F
100
AcDbEntity
  8
0
  6
Continuous
 62
     7
370
    18
100
AcDbLine
 10
249.0742658908
 20
169.2510250645
 30
0.0
 11
249.0742658908
 21
119.2510250645
 31
0.0
  0
DIMENSION
  5
74
330
1F
100
AcDbEntity
  8
0
  6
Continuous
 62
     7
370
    18
100
AcDbDimension
  2
_D
 10
269.8219525645
 20
119.2510250645
 30
0.0
 11
269.8219525645
 21
147.5356965974
 31
0.0
 70
   160
  1
<>
 71
     2
 42
-1.0
  3
SLDDIMSTYLE0
100
AcDbAlignedDimension
 13
249.0742658908
 23
169.2510250645
 33
0.0
 14
249.0742658908
 24
119.2510250645
 34
0.0
 50
90.0
100
AcDbRotatedDimension
  0
SPLINE
  5
81
330
1F
100
AcDbEntity
  8
0
  6
Continuous
 62
   144
370
    18
100
AcDbSpline
210
0.0
220
0.0
230
1.0
 70
     8
 71
     3
 72
    11
 73
     7
 74
     0
 42
0.000000001
 43
0.00000001
 40
0.0
 40
0.0
 40
0.0
 40
0.0
 40
0.2500000960803446
 40
0.5000001921547391
 40
0.7500002882375851
 40
1.0
 40
1.0
 40
1.0
 40
1.0
 10
173.4122045995354
 20
148.1732632320596
 30
0.0
 10
173.4135840240482
 20
148.3838096426909
 30
0.0
 10
173.4163428730736
 20
148.8049024639483
 30
0.0
 10
173.4212038971025
 20
149.4365366089122
 30
0.0
 10
173.4265410664246
 20
150.0681665795087
 30
0.0
 10
173.4305665011722
 20
150.4892488720776
 30
0.0
 10
173.4325792169989
 20
150.6997898565315
 30
0.0
  0
SPLINE
  5
82
330
1F
100
AcDbEntity
  8
0
  6
Continuous
 62
   144
370
    18
100
AcDbSpline
210
0.0
220
0.0
230
1.0
 70
     8
 71
     3
 72
    27
 73
    23
 74
     0
 42
0.000000001
 43
0.00000001
 40
0.0
 40
0.0
 40
0.0
 40
0.0
 40
0.0313220807183315
 40
0.0626045638083514
 40
0.0938233851032706
 40
0.1249857660031909
 40
0.1561448532587761
 40
0.1873594480564345
 40
0.2499372033366882
 40
0.3125642625450232
 40
0.375072293579358
 40
0.4999381554446418
 40
0.624782858502869
 40
0.6873053980774739
 40
0.7499908181123864
 40
0.8126162085445863
 40
0.84382794967314
 40
0.8749664581112478
 40
0.9061115103590464
 40
0.9373332946240948
 40
0.9686407882832081
 40
1.0
 40
1.0
 40
1.0
 40
1.0
 10
173.4325792262811
 20
150.6997908274945
 30
0.0
 10
173.4362536691563
 20
150.7502691425616
 30
0.0
 10
173.4435979096463
 20
150.8511619576008
 30
0.0
 10
173.4565395713147
 20
151.0022220718672
 30
0.0
 10
173.4733516643027
 20
151.1526567139383
 30
0.0
 10
173.4959129288096
 20
151.3021637843305
 30
0.0
 10
173.5263904117201
 20
151.4502881491586
 30
0.0
 10
173.5786635072977
 20
151.6454082491005
 30
0.0
 10
173.6635710464545
 20
151.8839507673803
 30
0.0
 10
173.791165860404
 20
152.1595433102578
 30
0.0
 10
173.9918141481762
 20
152.5106439695764
 30
0.0
 10
174.3017714305405
 20
152.9126903818845
 30
0.0
 10
174.6830446958289
 20
153.248307900238
 30
0.0
 10
175.0225157786462
 20
153.4683806592585
 30
0.0
 10
175.2919278561145
 20
153.6091500960376
 30
0.0
 10
175.5274410487459
 20
153.7029296892413
 30
0.0
 10
175.7212104572484
 20
153.7602549619674
 30
0.0
 10
175.868759201347
 20
153.7932372548384
 30
0.0
 10
176.0180241253852
 20
153.8171031173482
 30
0.0
 10
176.1684342873506
 20
153.8343554551445
 30
0.0
 10
176.3196148138237
 20
153.8471572097553
 30
0.0
 10
176.4206286862605
 20
153.8542164026202
 30
0.0
 10
176.4711773052293
 20
153.857748911985
 30
0.0
  0
SPLINE
  5
83
330
1F
100
AcDbEntity
  8
0
  6
Continuous
 62
   144
370
    18
100
AcDbSpline
210
0.0
220
0.0
230
1.0
 70
     8
 71
     3
 72
    20
 73
    16
 74
     0
 42
0.000000001
 43
0.00000001
 40
0.0
 40
0.0
 40
0.0
 40
0.0
 40
0.040816326896828
 40
0.0714285726738785
 40
0.125000002308567
 40
0.2500000027054733
 40
0.3125000049260371
 40
0.3750000071597229
 40
0.5000000049195168
 40
0.5625000052263597
 40
0.6250000068479523
 40
0.68750000910576
 40
0.7500000112603218
 40
0.8750000142206397
 40
1.0
 40
1.0
 40
1.0
 40
1.0
 10
176.4711841957809
 20
153.8577493935009
 30
0.0
 10
177.0699676799258
 20
153.8562577137604
 30
0.0
 10
178.1178387860466
 20
153.8536472741923
 30
0.0
 10
179.9516165514801
 20
153.8506827137507
 30
0.0
 10
183.0203896143395
 20
153.847330357749
 30
0.0
 10
186.5569659683724
 20
153.8468138008611
 30
0.0
 10
190.224525899377
 20
153.8476228821495
 30
0.0
 10
193.8920856722396
 20
153.8485051777106
 30
0.0
 10
197.5596467933657
 20
153.8480660828819
 30
0.0
 10
201.2272031842931
 20
153.8425284411022
 30
0.0
 10
203.9778661137339
 20
153.8362226546486
 30
0.0
 10
206.7285272172116
 20
153.8291962468284
 30
0.0
 10
210.3960769400159
 20
153.8204842431091
 30
0.0
 10
214.9805173422336
 20
153.8109406449039
 30
0.0
 10
218.6480746801239
 20
153.8065394079836
 30
0.0
 10
220.4818532230447
 20
153.8043387896747
 30
0.0
  0
SPLINE
  5
84
330
1F
100
AcDbEntity
  8
0
  6
Continuous
 62
   144
370
    18
100
AcDbSpline
210
0.0
220
0.0
230
1.0
 70
     8
 71
     3
 72
    27
 73
    23
 74
     0
 42
0.000000001
 43
0.00000001
 40
0.0
 40
0.0
 40
0.0
 40
0.0
 40
0.0313608435888963
 40
0.0626680452829624
 40
0.0938888747003473
 40
0.1250328243433705
 40
0.1561715178510711
 40
0.1873849861254911
 40
0.250013714062626
 40
0.3127011994509468
 40
0.3752267529855407
 40
0.500070137640547
 40
0.6249352029351329
 40
0.6874445174025391
 40
0.7500703881282235
 40
0.81264613646037
 40
0.8438608403218677
 40
0.8750203152599337
 40
0.9061826722629418
 40
0.9374006842881281
 40
0.9686816049752992
 40
1.0
 40
1.0
 40
1.0
 40
1.0
 10
220.4818539258565
 20
153.8043387889674
 30
0.0
 10
220.5320037856297
 20
153.8006719563025
 30
0.0
 10
220.6322177251652
 20
153.7933445629929
 30
0.0
 10
220.7821899299485
 20
153.7801410099479
 30
0.0
 10
220.9313747052119
 20
153.7624882282001
 30
0.0
 10
221.0793921914346
 20
153.7382232251015
 30
0.0
 10
221.2256593528888
 20
153.7048449172763
 30
0.0
 10
221.4176600360695
 20
153.6470069787358
 30
0.0
 10
221.6508287699124
 20
153.5525617002307
 30
0.0
 10
221.9170908187489
 20
153.4107688437586
 30
0.0
 10
222.2517333406567
 20
153.1889621540863
 30
0.0
 10
222.6256212532728
 20
152.850718133868
 30
0.0
 10
222.9262462474319
 20
152.4463865960069
 30
0.0
 10
223.1185707374089
 20
152.094198839492
 30
0.0
 10
223.2396063795258
 20
151.8182136516926
 30
0.0
 10
223.3189028985315
 20
151.5798079474523
 30
0.0
 10
223.366728940476
 20
151.3851573535049
 30
0.0
 10
223.393930272343
 20
151.2375821547942
 30
0.0
 10
223.4132871324705
 20
151.0888035916706
 30
0.0
 10
223.4269462475075
 20
150.9392262141752
 30
0.0
 10
223.4367698256117
 20
150.7891128750518
 30
0.0
 10
223.442047304138
 20
150.6888805126032
 30
0.0
 10
223.4446876230511
 20
150.6387343299218
 30
0.0
  0
SPLINE
  5
85
330
1F
100
AcDbEntity
  8
0
  6
Continuous
 62
   144
370
    18
100
AcDbSpline
210
0.0
220
0.0
230
1.0
 70
     8
 71
     3
 72
    13
 73
     9
 74
     0
 42
0.000000001
 43
0.00000001
 40
0.0
 40
0.0
 40
0.0
 40
0.0
 40
0.1250028667693966
 40
0.2500057355581332
 40
0.5000114345596548
 40
0.7500171318907064
 40
0.8750200008327701
 40
1.0
 40
1.0
 40
1.0
 40
1.0
 10
223.4446880476184
 20
150.6387262659301
 30
0.0
 10
223.4423309605803
 20
150.386228384094
 30
0.0
 10
223.437616786466
 20
149.8812326163427
 30
0.0
 10
223.4295131972707
 20
148.8712295349348
 30
0.0
 10
223.4212065439968
 20
147.6087117766942
 30
0.0
 10
223.4156559337431
 20
146.3461788562463
 30
0.0
 10
223.4127327172674
 20
145.3361936633484
 30
0.0
 10
223.4119720861477
 20
144.831222652459
 30
0.0
 10
223.4115918053812
 20
144.5787602457438
 30
0.0
  0
SPLINE
  5
86
330
1F
100
AcDbEntity
  8
0
  6
Continuous
 62
   144
370
    18
100
AcDbSpline
210
0.0
220
0.0
230
1.0
 70
     8
 71
     3
 72
    13
 73
     9
 74
     0
 42
0.000000001
 43
0.00000001
 40
0.0
 40
0.0
 40
0.0
 40
0.0
 40
0.1250000278910058
 40
0.2500000580969731
 40
0.5000000784172156
 40
0.7500001001055592
 40
0.8750001302236164
 40
1.0
 40
1.0
 40
1.0
 40
1.0
 10
223.4115916000708
 20
144.5786216678214
 30
0.0
 10
223.4113593850188
 20
144.3261123485662
 30
0.0
 10
223.4108949549104
 20
143.8210937053795
 30
0.0
 10
223.4113747040526
 20
142.8110560427277
 30
0.0
 10
223.4138641116613
 20
141.5485106776937
 30
0.0
 10
223.4191136529173
 20
140.2859738042385
 30
0.0
 10
223.4247707322888
 20
139.275952217432
 30
0.0
 10
223.4282622652084
 20
138.7709457563362
 30
0.0
 10
223.4300080305486
 20
138.5184426877355
 30
0.0
  0
SPLINE
  5
87
330
1F
100
AcDbEntity
  8
0
  6
Continuous
 62
   144
370
    18
100
AcDbSpline
210
0.0
220
0.0
230
1.0
 70
     8
 71
     3
 72
    27
 73
    23
 74
     0
 42
0.000000001
 43
0.00000001
 40
0.0
 40
0.0
 40
0.0
 40
0.0
 40
0.0313200626946367
 40
0.062600973819461
 40
0.0938189787356073
 40
0.124981330757076
 40
0.1561408006744766
 40
0.1873554971059745
 40
0.2499312256993755
 40
0.3125570825124937
 40
0.3750663885186126
 40
0.4999314134119838
 40
0.6247747827318594
 40
0.6873003185999749
 40
0.7499877860242996
 40
0.812616502157015
 40
0.8438299661819101
 40
0.8749686554109093
 40
0.9061125984338392
 40
0.9373334194931326
 40
0.9686406117970326
 40
1.0
 40
1.0
 40
1.0
 40
1.0
 10
223.4300080372037
 20
138.518441728302
 30
0.0
 10
223.4272462374611
 20
138.468299029211
 30
0.0
 10
223.4217260903572
 20
138.3680763117907
 30
0.0
 10
223.4115391233433
 20
138.217983396021
 30
0.0
 10
223.3975181496261
 20
138.0684383934395
 30
0.0
 10
223.3778014525513
 20
137.9197059692159
 30
0.0
 10
223.3502433163517
 20
137.7721958551937
 30
0.0
 10
223.3019468235122
 20
137.5776599426219
 30
0.0
 10
223.2220743357312
 20
137.3394446552394
 30
0.0
 10
223.1003721186688
 20
137.0637503408084
 30
0.0
 10
222.907197040534
 20
136.7120250396475
 30
0.0
 10
222.6055939150053
 20
136.3084177876583
 30
0.0
 10
222.2308867537976
 20
135.9710760684009
 30
0.0
 10
221.8957070784556
 20
135.7500765687878
 30
0.0
 10
221.6291015090809
 20
135.6089259489305
 30
0.0
 10
221.3957037948338
 20
135.5150430120357
 30
0.0
 10
221.2035626855345
 20
135.4576680960411
 30
0.0
 10
221.0572143376655
 20
135.4246425043298
 30
0.0
 10
220.9091376439717
 20
135.4007345077179
 30
0.0
 10
220.7599096164345
 20
135.3834415915649
 30
0.0
 10
220.6099072048703
 20
135.370600024155
 30
0.0
 10
220.5096774599353
 20
135.3635145407086
 30
0.0
 10
220.4595208460675
 20
135.3599688481847
 30
0.0
  0
SPLINE
  5
88
330
1F
100
AcDbEntity
  8
0
  6
Continuous
 62
   144
370
    18
100
AcDbSpline
210
0.0
220
0.0
230
1.0
 70
     8
 71
     3
 72
    19
 73
    15
 74
     0
 42
0.000000001
 43
0.00000001
 40
0.0
 40
0.0
 40
0.0
 40
0.0
 40
0.1250000028125635
 40
0.2500000068272151
 40
0.3125000095237047
 40
0.3750000123219229
 40
0.5000000072400431
 40
0.6250000060715559
 40
0.6875000088444615
 40
0.7500000116065729
 40
0.8750000130438992
 40
0.9250000146025465
 40
0.9550000157582667
 40
1.0
 40
1.0
 40
1.0
 40
1.0
 10
220.4595139101186
 20
135.3599683578851
 30
0.0
 10
218.6257339853535
 20
135.3621829239528
 30
0.0
 10
214.9581741181883
 20
135.3666120561097
 30
0.0
 10
210.3737208946909
 20
135.3680593784379
 30
0.0
 10
206.7061584565515
 20
135.3681609293749
 30
0.0
 10
203.0385964221436
 20
135.3675198899748
 30
0.0
 10
198.4541418321074
 20
135.3690638485983
 30
0.0
 10
193.8696993978573
 20
135.3796168781441
 30
0.0
 10
190.2021499828317
 20
135.3892821174226
 30
0.0
 10
186.5346002413281
 20
135.39889940555
 30
0.0
 10
183.0504242063462
 20
135.4067494115846
 30
0.0
 10
180.0430255737199
 20
135.4107323355357
 30
0.0
 10
178.2092451357744
 20
135.4122640464714
 30
0.0
 10
177.1089766000058
 20
135.4121843600536
 30
0.0
 10
176.4488155811885
 20
135.4121365482104
 30
0.0
  0
SPLINE
  5
89
330
1F
100
AcDbEntity
  8
0
  6
Continuous
 62
   144
370
    18
100
AcDbSpline
210
0.0
220
0.0
230
1.0
 70
     8
 71
     3
 72
    27
 73
    23
 74
     0
 42
0.000000001
 43
0.00000001
 40
0.0
 40
0.0
 40
0.0
 40
0.0
 40
0.0313606492421586
 40
0.0626681551882949
 40
0.0938899500879928
 40
0.1250350079806636
 40
0.1561735118607047
 40
0.1873852437862215
 40
0.2500106188465024
 40
0.3126960347953305
 40
0.3752186014715461
 40
0.5000633517626691
 40
0.624929219609112
 40
0.6874372705423156
 40
0.7500643559586708
 40
0.8126421448773056
 40
0.8438567646780863
 40
0.8750158740863815
 40
0.9061782640987047
 40
0.9373970852931557
 40
0.968679562885991
 40
1.0
 40
1.0
 40
1.0
 40
1.0
 10
176.4488148635829
 20
135.412136548002
 30
0.0
 10
176.3982730981388
 20
135.4157900869918
 30
0.0
 10
176.2972752145847
 20
135.4230909737379
 30
0.0
 10
176.146125111893
 20
135.436254344399
 30
0.0
 10
175.9957583011051
 20
135.4538660883661
 30
0.0
 10
175.8465525306322
 20
135.4780883655646
 30
0.0
 10
175.6990846793452
 20
135.5114225916015
 30
0.0
 10
175.5054549962739
 20
135.5692098561827
 30
0.0
 10
175.2701691808585
 20
135.6635505357134
 30
0.0
 10
175.0010967672125
 20
135.8049606822102
 30
0.0
 10
174.6621552889688
 20
136.0258399812901
 30
0.0
 10
174.2816885863996
 20
136.3623634794501
 30
0.0
 10
173.9727008710638
 20
136.765149085187
 30
0.0
 10
173.7729029471171
 20
137.1167292307604
 30
0.0
 10
173.6459770021558
 20
137.3926268626771
 30
0.0
 10
173.5616493270552
 20
137.6313720988587
 30
0.0
 10
173.5098503488965
 20
137.8266163474207
 30
0.0
 10
173.4797325065898
 20
137.9748125901563
 30
0.0
 10
173.4575342668336
 20
138.1243723037942
 30
0.0
 10
173.4410874506445
 20
138.2748455903102
 30
0.0
 10
173.4285128015862
 20
138.4259322912154
 30
0.0
 10
173.4214137122497
 20
138.526838825352
 30
0.0
 10
173.4178620153013
 20
138.5773226849552
 30
0.0
  0
SPLINE
  5
8A
330
1F
100
AcDbEntity
  8
0
  6
Continuous
 62
   144
370
    18
100
AcDbSpline
210
0.0
220
0.0
230
1.0
 70
     8
 71
     3
 72
    11
 73
     7
 74
     0
 42
0.000000001
 43
0.00000001
 40
0.0
 40
0.0
 40
0.0
 40
0.0
 40
0.2500239561628201
 40
0.5000479123336764
 40
0.7500718684961618
 40
1.0
 40
1.0
 40
1.0
 40
1.0
 10
173.4178614588857
 20
138.5773305941583
 30
0.0
 10
173.4163601852929
 20
138.7878748159226
 30
0.0
 10
173.4133576381074
 20
139.208963259458
 30
0.0
 10
173.4095509934843
 20
139.8406005694975
 30
0.0
 10
173.4062254734836
 20
140.4721599065913
 30
0.0
 10
173.4044892193254
 20
140.8931747809532
 30
0.0
 10
173.4036212586382
 20
141.1036418706613
 30
0.0
  0
SPLINE
  5
8B
330
1F
100
AcDbEntity
  8
0
  6
Continuous
 62
   144
370
    18
100
AcDbSpline
210
0.0
220
0.0
230
1.0
 70
     8
 71
     3
 72
    12
 73
     8
 74
     0
 42
0.000000001
 43
0.00000001
 40
0.0
 40
0.0
 40
0.0
 40
0.0
 40
0.1250001108944551
 40
0.2499999621925538
 40
0.500000052926257
 40
0.7500000254080907
 40
1.0
 40
1.0
 40
1.0
 40
1.0
 10
173.4036202603042
 20
141.1038839555003
 30
0.0
 10
173.4033114996802
 20
141.2511627836062
 30
0.0
 10
173.4026939790734
 20
141.5457201339539
 30
0.0
 10
173.4028375505019
 20
142.1348369938212
 30
0.0
 10
173.4057188338719
 20
142.8712272548929
 30
0.0
 10
173.4091736061067
 20
143.7548945271159
 30
0.0
 10
173.4102612629933
 20
144.3440096507769
 30
0.0
 10
173.4108050914389
 20
144.6385672138505
 30
0.0
  0
SPLINE
  5
8C
330
1F
100
AcDbEntity
  8
0
  6
Continuous
 62
   144
370
    18
100
AcDbSpline
210
0.0
220
0.0
230
1.0
 70
     8
 71
     3
 72
    12
 73
     8
 74
     0
 42
0.000000001
 43
0.00000001
 40
0.0
 40
0.0
 40
0.0
 40
0.0
 40
0.2500119756574283
 40
0.5000239491622929
 40
0.7500360407783436
 40
0.8750418927630199
 40
1.0
 40
1.0
 40
1.0
 40
1.0
 10
173.4108050914389
 20
144.6385672138505
 30
0.0
 10
173.4109745832492
 20
144.9331257073391
 30
0.0
 10
173.4113135668682
 20
145.5222426917802
 30
0.0
 10
173.4100058205185
 20
146.4059171802622
 30
0.0
 10
173.408917303201
 20
147.1423134667246
 30
0.0
 10
173.4102051473706
 20
147.7313733325699
 30
0.0
 10
173.4115376947611
 20
148.0258722359773
 30
0.0
 10
173.4122038411938
 20
148.1730935620746
 30
0.0
  0
LINE
  5
8D
330
1F
100
AcDbEntity
  8
0
  6
Continuous
 62
   144
370
    18
100
AcDbLine
 10
167.3282693008
 20
168.1297438999
 30
0.0
 11
166.9848839524
 21
168.1297589273
 31
0.0
  0
SPLINE
  5
8E
330
1F
100
AcDbEntity
  8
0
  6
Continuous
 62
   144
370
    18
100
AcDbSpline
210
0.0
220
0.0
230
1.0
 70
     8
 71
     3
 72
    19
 73
    15
 74
     0
 42
0.000000001
 43
0.00000001
 40
0.0
 40
0.0
 40
0.0
 40
0.0
 40
0.0312562752095065
 40
0.0625095822242441
 40
0.1250027826232094
 40
0.1874990791583986
 40
0.2500090405736123
 40
0.3750079665295911
 40
0.5000069242413624
 40
0.6250058703960963
 40
0.7500048224507715
 40
0.8750037704062
 40
0.9375027934142702
 40
1.0
 40
1.0
 40
1.0
 40
1.0
 10
166.9848834479668
 20
168.1297589272918
 30
0.0
 10
166.9708634266092
 20
168.0750834004806
 30
0.0
 10
166.9428247152796
 20
167.9657375390191
 30
0.0
 10
166.8876008194144
 20
167.7468612602281
 30
0.0
 10
166.82174769407
 20
167.4724691060477
 30
0.0
 10
166.7529445214866
 20
167.1408874975565
 30
0.0
 10
166.6707712828686
 20
166.6969442879785
 30
0.0
 10
166.5782774048709
 20
166.1401548313718
 30
0.0
 10
166.4868823278152
 20
165.4690747929506
 30
0.0
 10
166.4120413027277
 20
164.7959708185093
 30
0.0
 10
166.3524360101714
 20
164.121364266728
 30
0.0
 10
166.313060171365
 20
163.55837875315
 30
0.0
 10
166.2883397982491
 20
163.1075966616434
 30
0.0
 10
166.2771096620285
 20
162.8821511197901
 30
0.0
 10
166.2714946755153
 20
162.7694299869301
 30
0.0
  0
SPLINE
  5
8F
330
1F
100
AcDbEntity
  8
0
  6
Continuous
 62
   144
370
    18
100
AcDbSpline
210
0.0
220
0.0
230
1.0
 70
     8
 71
     3
 72
    16
 73
    12
 74
     0
 42
0.000000001
 43
0.00000001
 40
0.0
 40
0.0
 40
0.0
 40
0.0
 40
0.0625000330038517
 40
0.1250000661300111
 40
0.2500001248156423
 40
0.3750001688809798
 40
0.500000199760029
 40
0.7499999287742993
 40
0.8749999431402552
 40
0.9374999720031834
 40
1.0
 40
1.0
 40
1.0
 40
1.0
 10
166.2714938363864
 20
162.7694131413259
 30
0.0
 10
166.2638739518426
 20
162.39191161503
 30
0.0
 10
166.2486341827402
 20
161.6369085616994
 30
0.0
 10
166.2178720587704
 20
160.1269082588275
 30
0.0
 10
166.1804662357072
 20
158.2393865279365
 30
0.0
 10
166.1396217593542
 20
155.9742825318631
 30
0.0
 10
166.0927182985723
 20
152.9540197904779
 30
0.0
 10
166.059138174332
 20
149.9335578924811
 30
0.0
 10
166.04298430575
 20
147.2905572461803
 30
0.0
 10
166.0372993379223
 20
145.7802536386093
 30
0.0
 10
166.0360592696513
 20
145.0250976876072
 30
0.0
 10
166.0354392355201
 20
144.6475197147224
 30
0.0
  0
SPLINE
  5
90
330
1F
100
AcDbEntity
  8
0
  6
Continuous
 62
   144
370
    18
100
AcDbSpline
210
0.0
220
0.0
230
1.0
 70
     8
 71
     3
 72
    16
 73
    12
 74
     0
 42
0.000000001
 43
0.00000001
 40
0.0
 40
0.0
 40
0.0
 40
0.0
 40
0.0625000485058937
 40
0.1250000979242462
 40
0.2500001533874203
 40
0.4999999631974449
 40
0.6250000350894511
 40
0.7500001202166003
 40
0.8750002200281614
 40
0.9375002737345774
 40
0.9999999999999999
 40
0.9999999999999999
 40
0.9999999999999999
 40
0.9999999999999999
 10
166.0354392355201
 20
144.6475197147224
 30
0.0
 10
166.0351394382616
 20
144.2699378976466
 30
0.0
 10
166.0345398437401
 20
143.5147742579825
 30
0.0
 10
166.0365605846498
 20
142.0044474830122
 30
0.0
 10
166.0463032250082
 20
139.3613912650826
 30
0.0
 10
166.0725761139472
 20
136.3408292556769
 30
0.0
 10
166.1122059313114
 20
133.3204346836202
 30
0.0
 10
166.1476066490597
 20
131.0552183389696
 30
0.0
 10
166.1804840686881
 20
129.1675950284568
 30
0.0
 10
166.2076264417098
 20
127.6575134849824
 30
0.0
 10
166.2210571187724
 20
126.9024711528236
 30
0.0
 10
166.2277724397127
 20
126.5249509756731
 30
0.0
  0
SPLINE
  5
91
330
1F
100
AcDbEntity
  8
0
  6
Continuous
 62
   144
370
    18
100
AcDbSpline
210
0.0
220
0.0
230
1.0
 70
     8
 71
     3
 72
    15
 73
    11
 74
     0
 42
0.000000001
 43
0.00000001
 40
0.0
 40
0.0
 40
0.0
 40
0.0
 40
0.0625019325044732
 40
0.1250028331018002
 40
0.250004795466589
 40
0.5000017238066745
 40
0.7499953592222128
 40
0.8749955677024764
 40
0.9374956781233335
 40
1.0
 40
1.0
 40
1.0
 40
1.0
 10
166.2277725448668
 20
126.5249450442795
 30
0.0
 10
166.2322211490529
 20
126.4308162893298
 30
0.0
 10
166.2411182839788
 20
126.2425603334965
 30
0.0
 10
166.2602169441707
 20
125.8661107198188
 30
0.0
 10
166.3015008167407
 20
125.207767127443
 30
0.0
 10
166.3818616017167
 20
124.2687120710214
 30
0.0
 10
166.4986846825805
 20
123.3333842228067
 30
0.0
 10
166.602834192797
 20
122.6819662774844
 30
0.0
 10
166.6710913932691
 20
122.3112568806481
 30
0.0
 10
166.7064476548533
 20
122.1261347148621
 30
0.0
 10
166.7241263812296
 20
122.0335705135444
 30
0.0
  0
SPLINE
  5
92
330
1F
100
AcDbEntity
  8
0
  6
Continuous
 62
   144
370
    18
100
AcDbSpline
210
0.0
220
0.0
230
1.0
 70
     8
 71
     3
 72
    17
 73
    13
 74
     0
 42
0.000000001
 43
0.00000001
 40
0.0
 40
0.0
 40
0.0
 40
0.0
 40
0.065085817740273
 40
0.129841054219446
 40
0.257179496631455
 40
0.3804325540725285
 40
0.5000632276602113
 40
0.6196710491088585
 40
0.7428854874830212
 40
0.8701892021031801
 40
0.9349295761216236
 40
1.0
 40
1.0
 40
1.0
 40
1.0
 10
166.7241266161441
 20
122.0335692840045
 30
0.0
 10
166.732720331252
 20
122.0085277201836
 30
0.0
 10
166.7498641126164
 20
121.9585717826432
 30
0.0
 10
166.7849691824628
 20
121.860029245927
 30
0.0
 10
166.8322281748642
 20
121.7406636537604
 30
0.0
 10
166.9012957524045
 20
121.606439016389
 30
0.0
 10
166.989492164765
 20
121.4869752448058
 30
0.0
 10
167.1021810470506
 20
121.3902872871504
 30
0.0
 10
167.2310455429934
 20
121.3117357776806
 30
0.0
 10
167.3466799457546
 20
121.2560485124476
 30
0.0
 10
167.4424321869375
 20
121.213989108881
 30
0.0
 10
167.4910221898033
 20
121.1933198977157
 30
0.0
 10
167.5153789623827
 20
121.1829590159282
 30
0.0
  0
LINE
  5
93
330
1F
100
AcDbEntity
  8
0
  6
Continuous
 62
   144
370
    18
100
AcDbLine
 10
167.5153805542
 20
121.1829583388
 30
0.0
 11
167.7139186327
 21
121.1612370965
 31
0.0
  0
SPLINE
  5
94
330
1F
100
AcDbEntity
  8
0
  6
Continuous
 62
   144
370
    18
100
AcDbSpline
210
0.0
220
0.0
230
1.0
 70
     8
 71
     3
 72
    16
 73
    12
 74
     0
 42
0.000000001
 43
0.00000001
 40
0.0
 40
0.0
 40
0.0
 40
0.0
 40
0.0312500322021306
 40
0.0625000657621437
 40
0.1250001140528689
 40
0.2500001235704451
 40
0.4999998482236783
 40
0.7499998203921244
 40
0.8749999198570533
 40
0.9374999828693736
 40
1.0
 40
1.0
 40
1.0
 40
1.0
 10
167.7139226311961
 20
121.1612366590577
 30
0.0
 10
167.9722426145214
 20
121.1610107329506
 30
0.0
 10
168.4888825923966
 20
121.1605588807267
 30
0.0
 10
169.5221624885903
 20
121.1617132997254
 30
0.0
 10
171.3303944564603
 20
121.167548598418
 30
0.0
 10
174.9467855804156
 20
121.1944704461565
 30
0.0
 10
180.1127175542552
 20
121.2670230958846
 30
0.0
 10
185.2781198895069
 20
121.3693212448322
 30
0.0
 10
188.8935937371913
 20
121.4546815056801
 30
0.0
 10
190.9594797811866
 20
121.5074687012788
 30
0.0
 10
191.9923805592674
 20
121.5354539801298
 30
0.0
 10
192.508830758743
 20
121.5494466144193
 30
0.0
  0
SPLINE
  5
95
330
1F
100
AcDbEntity
  8
0
  6
Continuous
 62
   144
370
    18
100
AcDbSpline
210
0.0
220
0.0
230
1.0
 70
     8
 71
     3
 72
    17
 73
    13
 74
     0
 42
0.000000001
 43
0.00000001
 40
0.0
 40
0.0
 40
0.0
 40
0.0
 40
0.0646874495965744
 40
0.1290929632925797
 40
0.2560548518157232
 40
0.37955369719851
 40
0.500004490723522
 40
0.6204540794245101
 40
0.7439508789783197
 40
0.8709109186412959
 40
0.9353156391197645
 40
1.0
 40
1.0
 40
1.0
 40
1.0
 10
192.5088319218043
 20
121.5494466461185
 30
0.0
 10
192.5306422305891
 20
121.5531694340604
 30
0.0
 10
192.5741677893941
 20
121.5605987844233
 30
0.0
 10
192.660330598636
 20
121.5762782324991
 30
0.0
 10
192.7656767681497
 20
121.5990311062921
 30
0.0
 10
192.8869594397451
 20
121.6371331312085
 30
0.0
 10
192.9997196530309
 20
121.6919442026236
 30
0.0
 10
193.0989084224493
 20
121.7686292665235
 30
0.0
 10
193.1869058747625
 20
121.86037519658
 30
0.0
 10
193.2540718358226
 20
121.9446598260293
 30
0.0
 10
193.3063805449683
 20
122.0148975012917
 30
0.0
 10
193.3323641431693
 20
122.0505963090133
 30
0.0
 10
193.3453840858733
 20
122.0684843793083
 30
0.0
  0
LINE
  5
96
330
1F
100
AcDbEntity
  8
0
  6
Continuous
 62
   144
370
    18
100
AcDbLine
 10
193.3453855002
 20
122.0684863225
 30
0.0
 11
193.4058253993
 21
122.2039679216
 31
0.0
  0
SPLINE
  5
97
330
1F
100
AcDbEntity
  8
0
  6
Continuous
 62
   144
370
    18
100
AcDbSpline
210
0.0
220
0.0
230
1.0
 70
     8
 71
     3
 72
    32
 73
    28
 74
     0
 42
0.000000001
 43
0.00000001
 40
0.0
 40
0.0
 40
0.0
 40
0.0
 40
0.0312493498803948
 40
0.0624989511252972
 40
0.1041668935229689
 40
0.1250008829023374
 40
0.1875044798258506
 40
0.250011813380635
 40
0.3125303258788227
 40
0.3750741245183867
 40
0.4375903828004848
 40
0.5001380725967209
 40
0.6249466559411638
 40
0.6874574071761286
 40
0.7187123557850655
 40
0.7499698373286904
 40
0.7812224544441884
 40
0.8124665773328205
 40
0.8280915895307006
 40
0.8437214682519324
 40
0.8749940196161216
 40
0.9062483044310469
 40
0.9218639830805346
 40
0.9374772807471873
 40
0.9687228573642779
 40
0.9843589996110866
 40
1.0
 40
1.0
 40
1.0
 40
1.0
 10
193.405825754143
 20
122.2039687169089
 30
0.0
 10
193.4355700935895
 20
122.2845029178749
 30
0.0
 10
193.4950590117408
 20
122.4455719676104
 30
0.0
 10
193.5951579370127
 20
122.7136719766718
 30
0.0
 10
193.6870909311536
 20
122.9542823077431
 30
0.0
 10
193.8140742945551
 20
123.273370786485
 30
0.0
 10
193.9713623476798
 20
123.6420559517926
 30
0.0
 10
194.2030420312227
 20
124.102808855897
 30
0.0
 10
194.4781795866634
 20
124.5397702771892
 30
0.0
 10
194.8122513783277
 20
124.9354989791333
 30
0.0
 10
195.2163865785316
 20
125.2604896569099
 30
0.0
 10
195.8196642412269
 20
125.5935149462366
 30
0.0
 10
196.4855927526012
 20
125.7910793197443
 30
0.0
 10
197.0806535870179
 20
125.8739652133635
 30
0.0
 10
197.4233765621275
 20
125.8985788712794
 30
0.0
 10
197.6808386698835
 20
125.9079304333524
 30
0.0
 10
197.9384112524557
 20
125.9108580373094
 30
0.0
 10
198.1530361910975
 20
125.9101280806131
 30
0.0
 10
198.3247360459926
 20
125.909004574675
 30
0.0
 10
198.496514572992
 20
125.907981394762
 30
0.0
 10
198.71123805055
 20
125.9076609967038
 30
0.0
 10
198.9259103513084
 20
125.9125952803387
 30
0.0
 10
199.0973241813241
 20
125.9221219081776
 30
0.0
 10
199.2683972214639
 20
125.9362445618217
 30
0.0
 10
199.4389883126319
 20
125.9559909009233
 30
0.0
 10
199.6092717387208
 20
125.9785162238122
 30
0.0
 10
199.6943951866516
 20
125.9902485021652
 30
0.0
 10
199.736963521544
 20
125.9961155525036
 30
0.0
  0
SPLINE
  5
98
330
1F
100
AcDbEntity
  8
0
  6
Continuous
 62
   144
370
    18
100
AcDbSpline
210
0.0
220
0.0
230
1.0
 70
     8
 71
     3
 72
    17
 73
    13
 74
     0
 42
0.000000001
 43
0.00000001
 40
0.0
 40
0.0
 40
0.0
 40
0.0
 40
0.0312500952118862
 40
0.062500191236253
 40
0.1250003597391725
 40
0.2500005226002524
 40
0.4999997772725239
 40
0.7499993739805759
 40
0.8749996490145197
 40
0.937499832595267
 40
0.9687499292662023
 40
1.0
 40
1.0
 40
1.0
 40
1.0
 10
199.736963521544
 20
125.9961155525036
 30
0.0
 10
200.0590816468687
 20
126.0112380909556
 30
0.0
 10
200.7033179058929
 20
126.0414831682529
 30
0.0
 10
201.9916665825231
 20
126.1045599427671
 30
0.0
 10
204.2460149195039
 20
126.2201796507005
 30
0.0
 10
208.7534690242207
 20
126.4746979758829
 30
0.0
 10
215.1889886448313
 20
126.9006435202009
 30
0.0
 10
221.6191824948991
 20
127.3999806970119
 30
0.0
 10
226.1175262909534
 20
127.7829956302003
 30
0.0
 10
228.3660344312499
 20
127.9821471654878
 30
0.0
 10
229.650728184742
 20
128.0978256536922
 30
0.0
 10
230.2930055152794
 20
128.1564303887516
 30
0.0
 10
230.6141440472778
 20
128.1857327441211
 30
0.0
  0
SPLINE
  5
99
330
1F
100
AcDbEntity
  8
0
  6
Continuous
 62
   144
370
    18
100
AcDbSpline
210
0.0
220
0.0
230
1.0
 70
     8
 71
     3
 72
    19
 73
    15
 74
     0
 42
0.000000001
 43
0.00000001
 40
0.0
 40
0.0
 40
0.0
 40
0.0
 40
0.064204980374885
 40
0.1278612253286894
 40
0.1905552043146204
 40
0.2521588960511653
 40
0.3130011623090843
 40
0.3739822307740926
 40
0.4985390841756081
 40
0.6441419449306625
 40
0.7520232233884507
 40
0.8762152746377158
 40
0.9381229348384793
 40
1.0
 40
1.0
 40
1.0
 40
1.0
 10
230.6141448410982
 20
128.1857328166116
 30
0.0
 10
230.6534309554674
 20
128.2008448825937
 30
0.0
 10
230.7316674208056
 20
128.2309398575072
 30
0.0
 10
230.8470854345563
 20
128.2788170938178
 30
0.0
 10
230.9583119888773
 20
128.3320652831297
 30
0.0
 10
231.0632041344182
 20
128.3934973725011
 30
0.0
 10
231.1596748756555
 20
128.4659171199843
 30
0.0
 10
231.2732840979691
 20
128.5815624340537
 30
0.0
 10
231.3912105315818
 20
128.7664823884648
 30
0.0
 10
231.4788943832477
 20
128.999845215439
 30
0.0
 10
231.5317658754454
 20
129.2421874873754
 30
0.0
 10
231.553424277284
 20
129.4339480613218
 30
0.0
 10
231.5650013822251
 20
129.5960966568301
 30
0.0
 10
231.5696647328024
 20
129.6771164922712
 30
0.0
 10
231.5719958317866
 20
129.7176163974275
 30
0.0
  0
SPLINE
  5
9A
330
1F
100
AcDbEntity
  8
0
  6
Continuous
 62
   144
370
    18
100
AcDbSpline
210
0.0
220
0.0
230
1.0
 70
     8
 71
     3
 72
    17
 73
    13
 74
     0
 42
0.000000001
 43
0.00000001
 40
0.0
 40
0.0
 40
0.0
 40
0.0
 40
0.0312500258269594
 40
0.062500040482532
 40
0.1250000816979386
 40
0.2500000896844851
 40
0.4999997728432102
 40
0.6249998094440229
 40
0.7499998655460403
 40
0.8749999196863012
 40
0.9374999605633986
 40
0.9999999999999999
 40
0.9999999999999999
 40
0.9999999999999999
 40
0.9999999999999999
 10
231.5719961798931
 20
129.7176224451587
 30
0.0
 10
231.5681021687794
 20
129.872287257345
 30
0.0
 10
231.5603141479441
 20
130.1816168264274
 30
0.0
 10
231.5456776866505
 20
130.8002990967815
 30
0.0
 10
231.5223043915617
 20
131.8830440337392
 30
0.0
 10
231.4824039225509
 20
134.0486714972629
 30
0.0
 10
231.4505790309039
 20
136.5239093158789
 30
0.0
 10
231.4312904522847
 20
138.9992542486062
 30
0.0
 10
231.4216720205178
 20
140.8557963468094
 30
0.0
 10
231.4175350971901
 20
142.4029299343788
 30
0.0
 10
231.4165028872034
 20
143.6406400850881
 30
0.0
 10
231.4170230785343
 20
144.2594950787199
 30
0.0
 10
231.4172831741967
 20
144.5689225719699
 30
0.0
  0
SPLINE
  5
9B
330
1F
100
AcDbEntity
  8
0
  6
Continuous
 62
   144
370
    18
100
AcDbSpline
210
0.0
220
0.0
230
1.0
 70
     8
 71
     3
 72
    17
 73
    13
 74
     0
 42
0.000000001
 43
0.00000001
 40
0.0
 40
0.0
 40
0.0
 40
0.0
 40
0.0625000444739805
 40
0.1250000903721026
 40
0.2500001546094174
 40
0.375000220830651
 40
0.5000002676104117
 40
0.7499999716468165
 40
0.8749999896899887
 40
0.937500035889084
 40
0.9687500531279248
 40
1.0
 40
1.0
 40
1.0
 40
1.0
 10
231.4172831741967
 20
144.5689225719699
 30
0.0
 10
231.4177710887424
 20
144.8783502233792
 30
0.0
 10
231.4187469178447
 20
145.4972055332483
 30
0.0
 10
231.4227835827274
 20
146.7349112653129
 30
0.0
 10
231.4306662058558
 20
148.2820324603095
 30
0.0
 10
231.4447825804536
 20
150.1385484072886
 30
0.0
 10
231.4700642468032
 20
152.6138428449784
 30
0.0
 10
231.5078726065244
 20
155.0889999378718
 30
0.0
 10
231.5530035222581
 20
157.2545277467918
 30
0.0
 10
231.5789923206934
 20
158.3372145798203
 30
0.0
 10
231.5951254846353
 20
158.955860093152
 30
0.0
 10
231.603661495515
 20
159.2651699546582
 30
0.0
 10
231.6079294961496
 20
159.4198247112901
 30
0.0
  0
SPLINE
  5
9C
330
1F
100
AcDbEntity
  8
0
  6
Continuous
 62
   144
370
    18
100
AcDbSpline
210
0.0
220
0.0
230
1.0
 70
     8
 71
     3
 72
    20
 73
    16
 74
     0
 42
0.000000001
 43
0.00000001
 40
0.0
 40
0.0
 40
0.0
 40
0.0
 40
0.0618713936390467
 40
0.1237702520233976
 40
0.2479443228625695
 40
0.3196195034513493
 40
0.3922868704425839
 40
0.5015337426767292
 40
0.6260723953118726
 40
0.6870447846982293
 40
0.74787852303888
 40
0.8094735210093909
 40
0.8721584901911458
 40
0.9358054293877199
 40
1.0
 40
1.0
 40
1.0
 40
1.0
 10
231.6079295294783
 20
159.4198259204694
 30
0.0
 10
231.6056954060329
 20
159.4603335229747
 30
0.0
 10
231.6012261674136
 20
159.5413667093322
 30
0.0
 10
231.5900472285881
 20
159.7035447177556
 30
0.0
 10
231.5714084633218
 20
159.8717430782018
 30
0.0
 10
231.5371418075077
 20
160.0445883154541
 30
0.0
 10
231.4921244576227
 20
160.204847551633
 30
0.0
 10
231.4166051995517
 20
160.3916913227108
 30
0.0
 10
231.3119430491705
 20
160.5566035300364
 30
0.0
 10
231.1986225565892
 20
160.6725178782259
 30
0.0
 10
231.1023254471621
 20
160.7451725820132
 30
0.0
 10
230.9975836296086
 20
160.8068603314912
 30
0.0
 10
230.8864874475385
 20
160.8603808568766
 30
0.0
 10
230.7711879174193
 20
160.9085409307623
 30
0.0
 10
230.6930262935768
 20
160.9388277694588
 30
0.0
 10
230.653778072178
 20
160.9540360582864
 30
0.0
  0
SPLINE
  5
9D
330
1F
100
AcDbEntity
  8
0
  6
Continuous
 62
   144
370
    18
100
AcDbSpline
210
0.0
220
0.0
230
1.0
 70
     8
 71
     3
 72
    17
 73
    13
 74
     0
 42
0.000000001
 43
0.00000001
 40
0.0
 40
0.0
 40
0.0
 40
0.0
 40
0.0312500971938628
 40
0.0625001945212957
 40
0.1250003794550104
 40
0.2500006570341433
 40
0.5000002570054352
 40
0.7499995154336911
 40
0.874999680902863
 40
0.9374998507217738
 40
0.9687499473786005
 40
1.0
 40
1.0
 40
1.0
 40
1.0
 10
230.6537763626968
 20
160.9540367207242
 30
0.0
 10
230.3327077886229
 20
160.9841108099233
 30
0.0
 10
229.690570639103
 20
161.0442589884499
 30
0.0
 10
228.4061560322044
 20
161.1630484466672
 30
0.0
 10
226.1581274257678
 20
161.367628761889
 30
0.0
 10
221.6607061436926
 20
161.7615080479469
 30
0.0
 10
215.2317105664174
 20
162.2763277561592
 30
0.0
 10
208.7972085217588
 20
162.7177082133442
 30
0.0
 10
204.2903621338536
 20
162.9830369454467
 30
0.0
 10
202.0362896509711
 20
163.1040623107928
 30
0.0
 10
200.7480914265971
 20
163.1702194012508
 30
0.0
 10
200.1039277049263
 20
163.2020084136508
 30
0.0
 10
199.7818460710185
 20
163.2179029086521
 30
0.0
  0
SPLINE
  5
9E
330
1F
100
AcDbEntity
  8
0
  6
Continuous
 62
   144
370
    18
100
AcDbSpline
210
0.0
220
0.0
230
1.0
 70
     8
 71
     3
 72
    31
 73
    27
 74
     0
 42
0.000000001
 43
0.00000001
 40
0.0
 40
0.0
 40
0.0
 40
0.0
 40
0.0156410320136828
 40
0.0312772058073097
 40
0.0625228452136442
 40
0.0781361744155973
 40
0.0937518849237631
 40
0.1250062338528818
 40
0.156278848995137
 40
0.1719087595277798
 40
0.1875338035814895
 40
0.2187779895100163
 40
0.2500306678209646
 40
0.2812882111229969
 40
0.3125432255304429
 40
0.375054105428466
 40
0.4998629416423764
 40
0.5624107510459905
 40
0.6249271566294086
 40
0.6874710784467226
 40
0.7499897241775954
 40
0.8124971581128871
 40
0.8750009121174716
 40
0.9375018347232882
 40
0.968751497765931
 40
1.0
 40
1.0
 40
1.0
 40
1.0
 10
199.7818447318596
 20
163.2179029745688
 30
0.0
 10
199.7392905185384
 20
163.2238720171451
 30
0.0
 10
199.6541953095489
 20
163.235808248269
 30
0.0
 10
199.4839661097954
 20
163.2587415503444
 30
0.0
 10
199.3134225808645
 20
163.2788965717181
 30
0.0
 10
199.1423836214948
 20
163.2934289697818
 30
0.0
 10
198.9709928596754
 20
163.3033661434448
 30
0.0
 10
198.7563326911124
 20
163.3088146113682
 30
0.0
 10
198.5416087594365
 20
163.3090085383077
 30
0.0
 10
198.3698280332671
 20
163.3083968050169
 30
0.0
 10
198.1981257407454
 20
163.3076845455743
 30
0.0
 10
197.9834993764375
 20
163.3074686410216
 30
0.0
 10
197.7259341980038
 20
163.3110132200784
 30
0.0
 10
197.4684948727395
 20
163.3209814744237
 30
0.0
 10
197.1258313477315
 20
163.3464157270244
 30
0.0
 10
196.5309696208078
 20
163.4307254447402
 30
0.0
 10
195.8655162718552
 20
163.6298877158366
 30
0.0
 10
195.2630371700501
 20
163.9643578323808
 30
0.0
 10
194.8596839128995
 20
164.2903197167179
 30
0.0
 10
194.5265622500752
 20
164.6868498636457
 30
0.0
 10
194.2524757259344
 20
165.1244708501646
 30
0.0
 10
194.021894392324
 20
165.5857789389575
 30
0.0
 10
193.8208482198901
 20
166.0602855820484
 30
0.0
 10
193.6678115142411
 20
166.4613971342969
 30
0.0
 10
193.548467540385
 20
166.7834005327561
 30
0.0
 10
193.4893779649126
 20
166.9446142157727
 30
0.0
 10
193.459833725926
 20
167.0252195601312
 30
0.0
  0
LINE
  5
9F
330
1F
100
AcDbEntity
  8
0
  6
Continuous
 62
   144
370
    18
100
AcDbLine
 10
193.4598311145
 20
167.0252266845
 30
0.0
 11
193.3997050127
 21
167.1608515434
 31
0.0
  0
SPLINE
  5
A0
330
1F
100
AcDbEntity
  8
0
  6
Continuous
 62
   144
370
    18
100
AcDbSpline
210
0.0
220
0.0
230
1.0
 70
     8
 71
     3
 72
    17
 73
    13
 74
     0
 42
0.000000001
 43
0.00000001
 40
0.0
 40
0.0
 40
0.0
 40
0.0
 40
0.0646868331732103
 40
0.1290916352066082
 40
0.256051521573982
 40
0.3795475924606801
 40
0.4999960318920564
 40
0.6204459115278113
 40
0.7439444279162808
 40
0.8709065243268976
 40
0.9353122745342836
 40
1.0
 40
1.0
 40
1.0
 40
1.0
 10
193.3997046516043
 20
167.1608523579699
 30
0.0
 10
193.3867283244246
 20
167.1787735138345
 30
0.0
 10
193.3608322461591
 20
167.2145376902807
 30
0.0
 10
193.3086961650161
 20
167.2849061245539
 30
0.0
 10
193.2417378013592
 20
167.3693573326009
 30
0.0
 10
193.1539656373354
 20
167.4613203646816
 30
0.0
 10
193.0549638009591
 20
167.5382481205985
 30
0.0
 10
192.9423359135352
 20
167.5933328879776
 30
0.0
 10
192.8211443701697
 20
167.6317284636128
 30
0.0
 10
192.7158519177793
 20
167.6547358366892
 30
0.0
 10
192.6297257517785
 20
167.6706233463994
 30
0.0
 10
192.5862174645779
 20
167.6781577832695
 30
0.0
 10
192.5644158040118
 20
167.681933230334
 30
0.0
  0
SPLINE
  5
A1
330
1F
100
AcDbEntity
  8
0
  6
Continuous
 62
   144
370
    18
100
AcDbSpline
210
0.0
220
0.0
230
1.0
 70
     8
 71
     3
 72
    16
 73
    12
 74
     0
 42
0.000000001
 43
0.00000001
 40
0.0
 40
0.0
 40
0.0
 40
0.0
 40
0.0625000658109046
 40
0.1250001302593825
 40
0.2500002314508598
 40
0.5000001956446132
 40
0.7499998838703918
 40
0.8749998849612811
 40
0.9374999329649671
 40
0.9687499672166467
 40
1.0
 40
1.0
 40
1.0
 40
1.0
 10
192.5644158040118
 20
167.681933230334
 30
0.0
 10
192.038790346811
 20
167.6974151737237
 30
0.0
 10
190.9875394438675
 20
167.7283790601656
 30
0.0
 10
188.8849454706211
 20
167.7871053744938
 30
0.0
 10
185.2052091675621
 20
167.8825746653067
 30
0.0
 10
179.9479410768175
 20
167.9986221698625
 30
0.0
 10
174.6900474363023
 20
168.0834953566606
 30
0.0
 10
171.0092192689799
 20
168.117552929889
 30
0.0
 10
169.1687528584288
 20
168.1264809068781
 30
0.0
 10
168.117049376768
 20
168.1292676162533
 30
0.0
 10
167.5911959886619
 20
168.1295851387177
 30
0.0
 10
167.3282693007858
 20
168.1297438999461
 30
0.0
  0
ENDSEC
  0
SECTION
  2
OBJECTS
  0
DICTIONARY
  5
C
330
0
100
AcDbDictionary
281
     1
  3
ACAD_GROUP
350
D
  3
ACAD_LAYOUT
350
1A
  3
ACAD_MLINESTYLE
350
17
  3
ACAD_PLOTSETTINGS
350
19
  3
ACAD_PLOTSTYLENAME
350
E
  3
ACAD_SCALELIST
350
47
  0
DICTIONARY
  5
D
102
{ACAD_REACTORS
330
C
102
}
330
C
100
AcDbDictionary
281
     1
  0
DICTIONARY
  5
1A
102
{ACAD_REACTORS
330
C
102
}
330
C
100
AcDbDictionary
281
     1
  3
Layout1
350
1E
  3
Layout2
350
26
  3
Model
350
22
  0
DICTIONARY
  5
17
102
{ACAD_REACTORS
330
C
102
}
330
C
100
AcDbDictionary
281
     1
  3
Standard
350
18
  0
DICTIONARY
  5
19
102
{ACAD_REACTORS
330
C
102
}
330
C
100
AcDbDictionary
281
     1
  0
ACDBDICTIONARYWDFLT
  5
E
102
{ACAD_REACTORS
330
C
102
}
330
C
100
AcDbDictionary
281
     1
  3
Normal
350
F
100
AcDbDictionaryWithDefault
340
F
  0
DICTIONARY
  5
47
102
{ACAD_REACTORS
330
C
102
}
330
C
100
AcDbDictionary
281
     1
  3
A0
350
48
  3
A1
350
49
  3
A2
350
4A
  3
A3
350
4B
  3
A4
350
4C
  3
A5
350
4D
  3
A6
350
4E
  3
A7
350
4F
  3
A8
350
50
  3
A9
350
51
  3
B0
350
52
  3
B1
350
53
  3
B2
350
54
  3
B3
350
55
  3
B4
350
56
  3
B5
350
57
  3
B6
350
58
  3
B7
350
59
  3
B8
350
5A
  3
B9
350
5B
  3
C0
350
5C
  3
C1
350
5D
  3
C2
350
5E
  3
C3
350
5F
  3
C4
350
60
  3
C5
350
61
  3
C6
350
62
  3
C7
350
63
  3
C8
350
64
  3
C9
350
65
  3
D0
350
66
  3
D1
350
67
  3
D2
350
68
  0
LAYOUT
  5
1E
102
{ACAD_REACTORS
330
1A
102
}
330
1A
100
AcDbPlotSettings
  1

  2
none_device
  4

  6

 40
0.0
 41
0.0
 42
0.0
 43
0.0
 44
0.0
 45
0.0
 46
0.0
 47
0.0
 48
0.0
 49
0.0
140
0.0
141
0.0
142
1.0
143
1.0
 70
   688
 72
     1
 73
     0
 74
     5
  7

 75
    16
147
1.0
148
0.0
149
0.0
100
AcDbLayout
  1
Layout1
 70
     1
 71
     1
 10
0.0
 20
0.0
 11
420.0
 21
297.0
 12
0.0
 22
0.0
 32
0.0
 14
1.0000000000E+20
 24
1.0000000000E+20
 34
1.0000000000E+20
 15
-1.0000000000E+20
 25
-1.0000000000E+20
 35
-1.0000000000E+20
146
0.0
 13
0.0
 23
0.0
 33
0.0
 16
1.0
 26
0.0
 36
0.0
 17
0.0
 27
1.0
 37
0.0
 76
     0
330
1B
  0
LAYOUT
  5
26
102
{ACAD_REACTORS
330
1A
102
}
330
1A
100
AcDbPlotSettings
  1

  2
none_device
  4

  6

 40
0.0
 41
0.0
 42
0.0
 43
0.0
 44
0.0
 45
0.0
 46
0.0
 47
0.0
 48
0.0
 49
0.0
140
0.0
141
0.0
142
1.0
143
1.0
 70
   688
 72
     1
 73
     0
 74
     5
  7

 75
    16
147
1.0
148
0.0
149
0.0
100
AcDbLayout
  1
Layout2
 70
     1
 71
     2
 10
0.0
 20
0.0
 11
0.0
 21
0.0
 12
0.0
 22
0.0
 32
0.0
 14
0.0
 24
0.0
 34
0.0
 15
0.0
 25
0.0
 35
0.0
146
0.0
 13
0.0
 23
0.0
 33
0.0
 16
1.0
 26
0.0
 36
0.0
 17
0.0
 27
1.0
 37
0.0
 76
     0
330
23
  0
LAYOUT
  5
22
102
{ACAD_REACTORS
330
1A
102
}
330
1A
100
AcDbPlotSettings
  1

  2
none_device
  4
Letter_(8.50_x_11.00_Inches)
  6

 40
6.35
 41
6.35
 42
6.35000508
 43
6.35000508
 44
215.9
 45
279.4
 46
0.0
 47
0.0
 48
0.0
 49
0.0
140
0.0
141
0.0
142
1.0
143
1.0
 70
  1712
 72
     1
 73
     0
 74
     0
  7

 75
     0
147
1.0
148
0.0
149
0.0
100
AcDbLayout
  1
Model
 70
     1
 71
     0
 10
0.0
 20
0.0
 11
431.8
 21
279.4
 12
0.0
 22
0.0
 32
0.0
 14
0.0
 24
0.0
 34
0.0
 15
431.8
 25
279.4
 35
0.0
146
0.0
 13
0.0
 23
0.0
 33
0.0
 16
1.0
 26
0.0
 36
0.0
 17
0.0
 27
1.0
 37
0.0
 76
     0
330
1F
331
29
  0
MLINESTYLE
  5
18
102
{ACAD_REACTORS
330
17
102
}
330
17
100
AcDbMlineStyle
  2
Standard
 70
     0
  3

 62
   256
 51
90.0
 52
90.0
 71
     2
 49
0.5
 62
   256
  6
BYLAYER
 49
-0.5
 62
   256
  6
BYLAYER
  0
ACDBPLACEHOLDER
  5
F
102
{ACAD_REACTORS
330
E
102
}
330
E
  0
SCALE
  5
48
102
{ACAD_REACTORS
330
47
102
}
330
47
100
AcDbScale
 70
     0
300
1:1
140
1.0
141
1.0
290
     1
  0
SCALE
  5
49
102
{ACAD_REACTORS
330
47
102
}
330
47
100
AcDbScale
 70
     0
300
1:2
140
1.0
141
2.0
290
     0
  0
SCALE
  5
4A
102
{ACAD_REACTORS
330
47
102
}
330
47
100
AcDbScale
 70
     0
300
1:4
140
1.0
141
4.0
290
     0
  0
SCALE
  5
4B
102
{ACAD_REACTORS
330
47
102
}
330
47
100
AcDbScale
 70
     0
300
1:5
140
1.0
141
5.0
290
     0
  0
SCALE
  5
4C
102
{ACAD_REACTORS
330
47
102
}
330
47
100
AcDbScale
 70
     0
300
1:8
140
1.0
141
8.0
290
     0
  0
SCALE
  5
4D
102
{ACAD_REACTORS
330
47
102
}
330
47
100
AcDbScale
 70
     0
300
1:10
140
1.0
141
10.0
290
     0
  0
SCALE
  5
4E
102
{ACAD_REACTORS
330
47
102
}
330
47
100
AcDbScale
 70
     0
300
1:16
140
1.0
141
16.0
290
     0
  0
SCALE
  5
4F
102
{ACAD_REACTORS
330
47
102
}
330
47
100
AcDbScale
 70
     0
300
1:20
140
1.0
141
20.0
290
     0
  0
SCALE
  5
50
102
{ACAD_REACTORS
330
47
102
}
330
47
100
AcDbScale
 70
     0
300
1:30
140
1.0
141
30.0
290
     0
  0
SCALE
  5
51
102
{ACAD_REACTORS
330
47
102
}
330
47
100
AcDbScale
 70
     0
300
1:40
140
1.0
141
40.0
290
     0
  0
SCALE
  5
52
102
{ACAD_REACTORS
330
47
102
}
330
47
100
AcDbScale
 70
     0
300
1:50
140
1.0
141
50.0
290
     0
  0
SCALE
  5
53
102
{ACAD_REACTORS
330
47
102
}
330
47
100
AcDbScale
 70
     0
300
1:100
140
1.0
141
100.0
290
     0
  0
SCALE
  5
54
102
{ACAD_REACTORS
330
47
102
}
330
47
100
AcDbScale
 70
     0
300
2:1
140
2.0
141
1.0
290
     0
  0
SCALE
  5
55
102
{ACAD_REACTORS
330
47
102
}
330
47
100
AcDbScale
 70
     0
300
4:1
140
4.0
141
1.0
290
     0
  0
SCALE
  5
56
102
{ACAD_REACTORS
330
47
102
}
330
47
100
AcDbScale
 70
     0
300
8:1
140
8.0
141
1.0
290
     0
  0
SCALE
  5
57
102
{ACAD_REACTORS
330
47
102
}
330
47
100
AcDbScale
 70
     0
300
10:1
140
10.0
141
1.0
290
     0
  0
SCALE
  5
58
102
{ACAD_REACTORS
330
47
102
}
330
47
100
AcDbScale
 70
     0
300
100:1
140
100.0
141
1.0
290
     0
  0
SCALE
  5
59
102
{ACAD_REACTORS
330
47
102
}
330
47
100
AcDbScale
 70
     0
300
1/128" = 1'-0"
140
0.0078125
141
12.0
290
     0
  0
SCALE
  5
5A
102
{ACAD_REACTORS
330
47
102
}
330
47
100
AcDbScale
 70
     0
300
1/64" = 1'-0"
140
0.015625
141
12.0
290
     0
  0
SCALE
  5
5B
102
{ACAD_REACTORS
330
47
102
}
330
47
100
AcDbScale
 70
     0
300
1/32" = 1'-0"
140
0.03125
141
12.0
290
     0
  0
SCALE
  5
5C
102
{ACAD_REACTORS
330
47
102
}
330
47
100
AcDbScale
 70
     0
300
1/16" = 1'-0"
140
0.0625
141
12.0
290
     0
  0
SCALE
  5
5D
102
{ACAD_REACTORS
330
47
102
}
330
47
100
AcDbScale
 70
     0
300
3/32" = 1'-0"
140
0.09375
141
12.0
290
     0
  0
SCALE
  5
5E
102
{ACAD_REACTORS
330
47
102
}
330
47
100
AcDbScale
 70
     0
300
1/8" = 1'-0"
140
0.125
141
12.0
290
     0
  0
SCALE
  5
5F
102
{ACAD_REACTORS
330
47
102
}
330
47
100
AcDbScale
 70
     0
300
3/16" = 1'-0"
140
0.1875
141
12.0
290
     0
  0
SCALE
  5
60
102
{ACAD_REACTORS
330
47
102
}
330
47
100
AcDbScale
 70
     0
300
1/4" = 1'-0"
140
0.25
141
12.0
290
     0
  0
SCALE
  5
61
102
{ACAD_REACTORS
330
47
102
}
330
47
100
AcDbScale
 70
     0
300
3/8" = 1'-0"
140
0.375
141
12.0
290
     0
  0
SCALE
  5
62
102
{ACAD_REACTORS
330
47
102
}
330
47
100
AcDbScale
 70
     0
300
1/2" = 1'-0"
140
0.5
141
12.0
290
     0
  0
SCALE
  5
63
102
{ACAD_REACTORS
330
47
102
}
330
47
100
AcDbScale
 70
     0
300
3/4" = 1'-0"
140
0.75
141
12.0
290
     0
  0
SCALE
  5
64
102
{ACAD_REACTORS
330
47
102
}
330
47
100
AcDbScale
 70
     0
300
1" = 1'-0"
140
1.0
141
12.0
290
     0
  0
SCALE
  5
65
102
{ACAD_REACTORS
330
47
102
}
330
47
100
AcDbScale
 70
     0
300
1-1/2" = 1'-0"
140
1.5
141
12.0
290
     0
  0
SCALE
  5
66
102
{ACAD_REACTORS
330
47
102
}
330
47
100
AcDbScale
 70
     0
300
3" = 1'-0"
140
3.0
141
12.0
290
     0
  0
SCALE
  5
67
102
{ACAD_REACTORS
330
47
102
}
330
47
100
AcDbScale
 70
     0
300
6" = 1'-0"
140
6.0
141
12.0
290
     0
  0
SCALE
  5
68
102
{ACAD_REACTORS
330
47
102
}
330
47
100
AcDbScale
 70
     0
300
1'-0" = 1'-0"
140
12.0
141
12.0
290
     0
  0
ENDSEC
  0
EOF
