  0
SECTION
  2
HEADER
  9
$ACADVER
  1
AC1018
  9
$ACADMAINTVER
 70
     0
  9
$DWGCODEPAGE
  3
ANSI_1252
  9
$LASTSAVEDBY
  1
eduardo.guerra
  9
$INSBASE
 10
0.0
 20
0.0
 30
0.0
  9
$EXTMIN
 10
-0.5
 20
-0.5
 30
-0.5
  9
$EXTMAX
 10
5.0
 20
5.0
 30
5.0
  9
$LIMMIN
 10
-0.5
 20
-0.5
  9
$LIMMAX
 10
5.0
 20
5.0
  9
$ORTHOMODE
 70
     0
  9
$REGENMODE
 70
     1
  9
$FILLMODE
 70
     1
  9
$QTEXTMODE
 70
     0
  9
$MIRRTEXT
 70
     1
  9
$LTSCALE
 40
1.0
  9
$ATTMODE
 70
     1
  9
$TEXTSIZE
 40
0.2
  9
$TRACEWID
 40
0.05
  9
$TEXTSTYLE
  7
Standard
  9
$CLAYER
  8
0
  9
$CELTYPE
  6
ByLayer
  9
$CECOLOR
 62
   256
  9
$CELTSCALE
 40
1.0
  9
$DISPSILH
 70
     0
  9
$DIMSCALE
 40
1.0
  9
$DIMASZ
 40
0.18
  9
$DIMEXO
 40
0.0625
  9
$DIMDLI
 40
0.38
  9
$DIMRND
 40
0.0
  9
$DIMDLE
 40
0.0
  9
$DIMEXE
 40
0.18
  9
$DIMTP
 40
0.0
  9
$DIMTM
 40
0.0
  9
$DIMTXT
 40
0.18
  9
$DIMCEN
 40
0.09
  9
$DIMTSZ
 40
0.0
  9
$DIMTOL
 70
     0
  9
$DIMLIM
 70
     0
  9
$DIMTIH
 70
     1
  9
$DIMTOH
 70
     1
  9
$DIMSE1
 70
     0
  9
$DIMSE2
 70
     0
  9
$DIMTAD
 70
     0
  9
$DIMZIN
 70
     0
  9
$DIMBLK
  1

  9
$DIMASO
 70
     1
  9
$DIMSHO
 70
     1
  9
$DIMPOST
  1

  9
$DIMAPOST
  1

  9
$DIMALT
 70
     0
  9
$DIMALTD
 70
     2
  9
$DIMALTF
 40
25.4
  9
$DIMLFAC
 40
1.0
  9
$DIMTOFL
 70
     0
  9
$DIMTVP
 40
0.0
  9
$DIMTIX
 70
     0
  9
$DIMSOXD
 70
     0
  9
$DIMSAH
 70
     0
  9
$DIMBLK1
  1

  9
$DIMBLK2
  1

  9
$DIMSTYLE
  2
Standard
  9
$DIMCLRD
 70
     0
  9
$DIMCLRE
 70
     0
  9
$DIMCLRT
 70
     0
  9
$DIMTFAC
 40
1.0
  9
$DIMGAP
 40
0.09
  9
$DIMJUST
 70
     0
  9
$DIMSD1
 70
     0
  9
$DIMSD2
 70
     0
  9
$DIMTOLJ
 70
     1
  9
$DIMTZIN
 70
     0
  9
$DIMALTZ
 70
     0
  9
$DIMALTTZ
 70
     0
  9
$DIMUPT
 70
     0
  9
$DIMDEC
 70
     4
  9
$DIMTDEC
 70
     4
  9
$DIMALTU
 70
     2
  9
$DIMALTTD
 70
     2
  9
$DIMTXSTY
  7
Standard
  9
$DIMAUNIT
 70
     0
  9
$DIMADEC
 70
     0
  9
$DIMALTRND
 40
0.0
  9
$DIMAZIN
 70
     0
  9
$DIMDSEP
 70
    46
  9
$DIMATFIT
 70
     3
  9
$DIMFRAC
 70
     0
  9
$DIMLDRBLK
  1

  9
$DIMLUNIT
 70
     2
  9
$DIMLWD
 70
    -2
  9
$DIMLWE
 70
    -2
  9
$DIMTMOVE
 70
     0
  9
$LUNITS
 70
     2
  9
$LUPREC
 70
     4
  9
$SKETCHINC
 40
0.1
  9
$FILLETRAD
 40
0.0
  9
$AUNITS
 70
     0
  9
$AUPREC
 70
     0
  9
$MENU
  1
.
  9
$ELEVATION
 40
0.0
  9
$PELEVATION
 40
0.0
  9
$THICKNESS
 40
0.0
  9
$LIMCHECK
 70
     0
  9
$CHAMFERA
 40
0.0
  9
$CHAMFERB
 40
0.0
  9
$CHAMFERC
 40
0.0
  9
$CHAMFERD
 40
0.0
  9
$SKPOLY
 70
     0
  9
$TDCREATE
 40
2460160.306962893
  9
$TDUCREATE
 40
2460160.431962893
  9
$TDUPDATE
 40
2460160.306966678
  9
$TDUUPDATE
 40
2460160.431966678
  9
$TDINDWG
 40
0.0000000116
  9
$TDUSRTIMER
 40
0.0000000116
  9
$USRTIMER
 70
     1
  9
$ANGBASE
 50
0.0
  9
$ANGDIR
 70
     0
  9
$PDMODE
 70
     0
  9
$PDSIZE
 40
0.0
  9
$PLINEWID
 40
0.0
  9
$SPLFRAME
 70
     0
  9
$SPLINETYPE
 70
     6
  9
$SPLINESEGS
 70
     8
  9
$HANDSEED
  5
236
  9
$SURFTAB1
 70
     6
  9
$SURFTAB2
 70
     6
  9
$SURFTYPE
 70
     6
  9
$SURFU
 70
     6
  9
$SURFV
 70
     6
  9
$UCSBASE
  2

  9
$UCSNAME
  2

  9
$UCSORG
 10
0.0
 20
0.0
 30
0.0
  9
$UCSXDIR
 10
1.0
 20
0.0
 30
0.0
  9
$UCSYDIR
 10
0.0
 20
1.0
 30
0.0
  9
$UCSORTHOREF
  2

  9
$UCSORTHOVIEW
 70
     0
  9
$UCSORGTOP
 10
0.0
 20
0.0
 30
0.0
  9
$UCSORGBOTTOM
 10
0.0
 20
0.0
 30
0.0
  9
$UCSORGLEFT
 10
0.0
 20
0.0
 30
0.0
  9
$UCSORGRIGHT
 10
0.0
 20
0.0
 30
0.0
  9
$UCSORGFRONT
 10
0.0
 20
0.0
 30
0.0
  9
$UCSORGBACK
 10
0.0
 20
0.0
 30
0.0
  9
$PUCSBASE
  2

  9
$PUCSNAME
  2

  9
$PUCSORG
 10
0.0
 20
0.0
 30
0.0
  9
$PUCSXDIR
 10
1.0
 20
0.0
 30
0.0
  9
$PUCSYDIR
 10
0.0
 20
1.0
 30
0.0
  9
$PUCSORTHOREF
  2

  9
$PUCSORTHOVIEW
 70
     0
  9
$PUCSORGTOP
 10
0.0
 20
0.0
 30
0.0
  9
$PUCSORGBOTTOM
 10
0.0
 20
0.0
 30
0.0
  9
$PUCSORGLEFT
 10
0.0
 20
0.0
 30
0.0
  9
$PUCSORGRIGHT
 10
0.0
 20
0.0
 30
0.0
  9
$PUCSORGFRONT
 10
0.0
 20
0.0
 30
0.0
  9
$PUCSORGBACK
 10
0.0
 20
0.0
 30
0.0
  9
$USERI1
 70
     0
  9
$USERI2
 70
     0
  9
$USERI3
 70
     0
  9
$USERI4
 70
     0
  9
$USERI5
 70
     0
  9
$USERR1
 40
0.0
  9
$USERR2
 40
0.0
  9
$USERR3
 40
0.0
  9
$USERR4
 40
0.0
  9
$USERR5
 40
0.0
  9
$WORLDVIEW
 70
     1
  9
$SHADEDGE
 70
     3
  9
$SHADEDIF
 70
    70
  9
$TILEMODE
 70
     0
  9
$MAXACTVP
 70
    64
  9
$PINSBASE
 10
0.0
 20
0.0
 30
0.0
  9
$PLIMCHECK
 70
     0
  9
$PEXTMIN
 10
0.0
 20
0.0
 30
0.0
  9
$PEXTMAX
 10
1300.0
 20
1000.0
 30
0.0
  9
$PLIMMIN
 10
0.0
 20
0.0
  9
$PLIMMAX
 10
1300.0
 20
1000.0
  9
$UNITMODE
 70
     0
  9
$VISRETAIN
 70
     1
  9
$PLINEGEN
 70
     0
  9
$PSLTSCALE
 70
     1
  9
$TREEDEPTH
 70
  3020
  9
$CMLSTYLE
  2
Standard
  9
$CMLJUST
 70
     0
  9
$CMLSCALE
 40
1.0
  9
$PROXYGRAPHICS
 70
     1
  9
$MEASUREMENT
 70
     1
  9
$CELWEIGHT
370
    70
  9
$ENDCAPS
280
     0
  9
$JOINSTYLE
280
     0
  9
$LWDISPLAY
290
     1
  9
$INSUNITS
 70
     4
  9
$HYPERLINKBASE
  1

  9
$STYLESHEET
  1

  9
$XEDIT
290
     1
  9
$CEPSNTYPE
380
     0
  9
$PSTYLEMODE
290
     1
  9
$FINGERPRINTGUID
  2
{abd4994e-dcb2-46aa-b9c0-8d77b4327068}
  9
$VERSIONGUID
  2
{FAEB1C32-E019-11D5-929B-00C0DF256EC4}
  9
$EXTNAMES
290
     1
  9
$PSVPSCALE
 40
0.0
  9
$OLESTARTUP
290
     0
  9
$SORTENTS
280
   127
  9
$INDEXCTL
280
     0
  9
$HIDETEXT
280
     1
  9
$XCLIPFRAME
290
     0
  9
$HALOGAP
280
     0
  9
$OBSCOLOR
 70
   257
  9
$OBSLTYPE
280
     0
  9
$INTERSECTIONDISPLAY
280
     0
  9
$INTERSECTIONCOLOR
 70
   257
  9
$DIMASSOC
280
     2
  9
$PROJECTNAME
  1

  0
ENDSEC
  0
SECTION
  2
CLASSES
  0
CLASS
  1
ACDBDICTIONARYWDFLT
  2
AcDbDictionaryWithDefault
  3
ObjectDBX Classes
 90
        0
 91
        3
280
     0
281
     0
  0
CLASS
  1
VISUALSTYLE
  2
AcDbVisualStyle
  3
ObjectDBX Classes
 90
     4095
 91
        3
280
     0
281
     0
  0
CLASS
  1
MATERIAL
  2
AcDbMaterial
  3
ObjectDBX Classes
 90
     1153
 91
        3
280
     0
281
     0
  0
CLASS
  1
SCALE
  2
AcDbScale
  3
ObjectDBX Classes
 90
     1153
 91
        3
280
     0
281
     0
  0
CLASS
  1
TABLESTYLE
  2
AcDbTableStyle
  3
ObjectDBX Classes
 90
     4095
 91
        3
280
     0
281
     0
  0
CLASS
  1
MLEADERSTYLE
  2
AcDbMLeaderStyle
  3
ACDB_MLEADERSTYLE_CLASS
 90
     4095
 91
        3
280
     0
281
     0
  0
CLASS
  1
SUN
  2
AcDbSun
  3
SCENEOE
 90
     1153
 91
        3
280
     0
281
     0
  0
CLASS
  1
DIMASSOC
  2
AcDbDimAssoc
  3
"AcDbDimAssoc|Product Desc:     AcDim ARX App For Dimension|Company:          Autodesk, Inc.|WEB Address:      www.autodesk.com"
 90
        0
 91
        3
280
     0
281
     0
  0
CLASS
  1
DICTIONARYVAR
  2
AcDbDictionaryVar
  3
ObjectDBX Classes
 90
        0
 91
        3
280
     0
281
     0
  0
CLASS
  1
CELLSTYLEMAP
  2
AcDbCellStyleMap
  3
ObjectDBX Classes
 90
     1152
 91
        3
280
     0
281
     0
  0
ENDSEC
  0
SECTION
  2
TABLES
  0
TABLE
  2
VPORT
  5
8
102
{ACAD_XDICTIONARY
360
1EF
102
}
330
0
100
AcDbSymbolTable
 70
    16
  0
VPORT
  5
29
330
8
100
AcDbSymbolTableRecord
100
AcDbViewportTableRecord
  2
*Active
 70
     0
 10
0.0
 20
0.0
 11
1.0
 21
1.0
 12
0.0
 22
0.0
 13
0.0
 23
0.0
 14
0.5
 24
0.5
 15
0.5
 25
0.5
 16
0.7188730927569433
 26
-0.5850486126764433
 36
0.3754192287502549
 17
0.0
 27
0.0
 37
0.0
 40
1545.67727
 41
0.011488
 42
50.0
 43
762.994036
 44
-762.994036
 50
0.0
 51
0.0
 71
     0
 72
   100
 73
     1
 74
     3
 75
     0
 76
     0
 77
     0
 78
     0
281
     0
 65
     1
110
0.0
120
0.0
130
0.0
111
1.0
121
0.0
131
0.0
112
0.0
122
1.0
132
0.0
 79
     0
146
0.0
  0
VPORT
  5
1D7
330
8
100
AcDbSymbolTableRecord
100
AcDbViewportTableRecord
  2
L1
 70
     0
 10
0.0
 20
0.0
 11
1.0
 21
1.0
 12
0.0
 22
0.0
 13
0.0
 23
0.0
 14
0.5
 24
0.5
 15
0.5
 25
0.5
 16
0.7188730927569433
 26
-0.5850486126764433
 36
0.3754192287502549
 17
0.0
 27
0.0
 37
0.0
 40
1545.67727
 41
0.011488
 42
50.0
 43
762.994036
 44
-762.994036
 50
0.0
 51
0.0
 71
     0
 72
   100
 73
     1
 74
     3
 75
     0
 76
     0
 77
     0
 78
     0
281
     0
 65
     1
110
0.0
120
0.0
130
0.0
111
1.0
121
0.0
131
0.0
112
0.0
122
1.0
132
0.0
 79
     0
146
0.0
  0
VPORT
  5
1D8
330
8
100
AcDbSymbolTableRecord
100
AcDbViewportTableRecord
  2
L2
 70
     0
 10
0.0
 20
0.0
 11
0.5
 21
1.0
 12
0.0
 22
0.0
 13
0.0
 23
0.0
 14
0.5
 24
0.5
 15
0.5
 25
0.5
 16
0.0
 26
-1.0
 36
0.0
 17
0.0
 27
0.0
 37
0.0
 40
1488.76885
 41
0.011927
 42
50.0
 43
771.031448
 44
-771.031448
 50
0.0
 51
0.0
 71
     0
 72
   100
 73
     1
 74
     3
 75
     0
 76
     0
 77
     0
 78
     0
281
     0
 65
     1
110
0.0
120
0.0
130
0.0
111
1.0
121
0.0
131
0.0
112
0.0
122
1.0
132
0.0
 79
     0
146
0.0
  0
VPORT
  5
1D9
330
8
100
AcDbSymbolTableRecord
100
AcDbViewportTableRecord
  2
L2
 70
     0
 10
0.5
 20
0.0
 11
1.0
 21
1.0
 12
0.0
 22
0.0
 13
0.0
 23
0.0
 14
0.5
 24
0.5
 15
0.5
 25
0.5
 16
1.0
 26
0.0
 36
0.0
 17
0.0
 27
0.0
 37
0.0
 40
1488.76885
 41
0.011927
 42
50.0
 43
751.4661
 44
-751.4661
 50
0.0
 51
0.0
 71
     0
 72
   100
 73
     1
 74
     3
 75
     0
 76
     0
 77
     0
 78
     0
281
     0
 65
     1
110
0.0
120
0.0
130
0.0
111
1.0
121
0.0
131
0.0
112
0.0
122
1.0
132
0.0
 79
     0
146
0.0
  0
VPORT
  5
1DA
330
8
100
AcDbSymbolTableRecord
100
AcDbViewportTableRecord
  2
L3
 70
     0
 10
0.0
 20
0.5
 11
1.0
 21
1.0
 12
0.0
 22
0.0
 13
0.0
 23
0.0
 14
0.5
 24
0.5
 15
0.5
 25
0.5
 16
0.0
 26
0.0
 36
1.0
 17
0.0
 27
0.0
 37
0.0
 40
205.845833
 41
0.086262
 42
50.0
 43
744.384425
 44
-744.384425
 50
0.0
 51
0.0
 71
     0
 72
   100
 73
     1
 74
     3
 75
     0
 76
     0
 77
     0
 78
     0
281
     0
 65
     1
110
0.0
120
0.0
130
0.0
111
1.0
121
0.0
131
0.0
112
0.0
122
1.0
132
0.0
 79
     0
146
0.0
  0
VPORT
  5
1DB
330
8
100
AcDbSymbolTableRecord
100
AcDbViewportTableRecord
  2
L3
 70
     0
 10
0.0
 20
0.0
 11
1.0
 21
0.5
 12
0.0
 22
0.0
 13
0.0
 23
0.0
 14
0.5
 24
0.5
 15
0.5
 25
0.5
 16
0.0
 26
-1.0
 36
0.0
 17
0.0
 27
0.0
 37
0.0
 40
1488.76885
 41
0.011927
 42
50.0
 43
771.031448
 44
-771.031448
 50
0.0
 51
0.0
 71
     0
 72
   100
 73
     1
 74
     3
 75
     0
 76
     0
 77
     0
 78
     0
281
     0
 65
     1
110
0.0
120
0.0
130
0.0
111
1.0
121
0.0
131
0.0
112
0.0
122
1.0
132
0.0
 79
     0
146
0.0
  0
VPORT
  5
1DC
330
8
100
AcDbSymbolTableRecord
100
AcDbViewportTableRecord
  2
L4
 70
     0
 10
0.0
 20
0.5
 11
0.5
 21
1.0
 12
0.0
 22
0.0
 13
0.0
 23
0.0
 14
0.5
 24
0.5
 15
0.5
 25
0.5
 16
0.0
 26
0.0
 36
1.0
 17
0.0
 27
0.0
 37
0.0
 40
205.845833
 41
0.086262
 42
50.0
 43
744.384425
 44
-744.384425
 50
0.0
 51
0.0
 71
     0
 72
   100
 73
     1
 74
     3
 75
     0
 76
     0
 77
     0
 78
     0
281
     0
 65
     1
110
0.0
120
0.0
130
0.0
111
1.0
121
0.0
131
0.0
112
0.0
122
1.0
132
0.0
 79
     0
146
0.0
  0
VPORT
  5
1DD
330
8
100
AcDbSymbolTableRecord
100
AcDbViewportTableRecord
  2
L4
 70
     0
 10
0.0
 20
0.0
 11
0.5
 21
0.5
 12
0.0
 22
0.0
 13
0.0
 23
0.0
 14
0.5
 24
0.5
 15
0.5
 25
0.5
 16
0.0
 26
-1.0
 36
0.0
 17
0.0
 27
0.0
 37
0.0
 40
1488.76885
 41
0.011927
 42
50.0
 43
771.031448
 44
-771.031448
 50
0.0
 51
0.0
 71
     0
 72
   100
 73
     1
 74
     3
 75
     0
 76
     0
 77
     0
 78
     0
281
     0
 65
     1
110
0.0
120
0.0
130
0.0
111
1.0
121
0.0
131
0.0
112
0.0
122
1.0
132
0.0
 79
     0
146
0.0
  0
VPORT
  5
1DE
330
8
100
AcDbSymbolTableRecord
100
AcDbViewportTableRecord
  2
L4
 70
     0
 10
0.5
 20
0.0
 11
1.0
 21
0.5
 12
0.0
 22
0.0
 13
0.0
 23
0.0
 14
0.5
 24
0.5
 15
0.5
 25
0.5
 16
1.0
 26
0.0
 36
0.0
 17
0.0
 27
0.0
 37
0.0
 40
1488.76885
 41
0.011927
 42
50.0
 43
751.4661
 44
-751.4661
 50
0.0
 51
0.0
 71
     0
 72
   100
 73
     1
 74
     3
 75
     0
 76
     0
 77
     0
 78
     0
281
     0
 65
     1
110
0.0
120
0.0
130
0.0
111
1.0
121
0.0
131
0.0
112
0.0
122
1.0
132
0.0
 79
     0
146
0.0
  0
VPORT
  5
1DF
330
8
100
AcDbSymbolTableRecord
100
AcDbViewportTableRecord
  2
L4
 70
     0
 10
0.5
 20
0.5
 11
1.0
 21
1.0
 12
0.0
 22
0.0
 13
0.0
 23
0.0
 14
0.5
 24
0.5
 15
0.5
 25
0.5
 16
0.5773502691896258
 26
-0.5773502691896258
 36
0.5773502691896258
 17
0.0
 27
0.0
 37
0.0
 40
1463.686724
 41
0.012132
 42
50.0
 43
762.734815
 44
-762.734815
 50
0.0
 51
0.0
 71
     0
 72
   100
 73
     1
 74
     3
 75
     0
 76
     0
 77
     0
 78
     0
281
     0
 65
     1
110
0.0
120
0.0
130
0.0
111
1.0
121
0.0
131
0.0
112
0.0
122
1.0
132
0.0
 79
     0
146
0.0
  0
VPORT
  5
1E0
330
8
100
AcDbSymbolTableRecord
100
AcDbViewportTableRecord
  2
L6
 70
     0
 10
0.0
 20
0.5
 11
0.333333
 21
1.0
 12
0.0
 22
0.0
 13
0.0
 23
0.0
 14
0.5
 24
0.5
 15
0.5
 25
0.5
 16
0.7188730927569433
 26
-0.5850486126764433
 36
0.3754192287502549
 17
0.0
 27
0.0
 37
0.0
 40
1545.67727
 41
0.011488
 42
50.0
 43
762.994036
 44
-762.994036
 50
0.0
 51
0.0
 71
     0
 72
   100
 73
     1
 74
     3
 75
     0
 76
     0
 77
     0
 78
     0
281
     0
 65
     1
110
0.0
120
0.0
130
0.0
111
1.0
121
0.0
131
0.0
112
0.0
122
1.0
132
0.0
 79
     0
146
0.0
  0
VPORT
  5
1E1
330
8
100
AcDbSymbolTableRecord
100
AcDbViewportTableRecord
  2
L6
 70
     0
 10
0.0
 20
0.0
 11
0.333333
 21
0.5
 12
0.0
 22
0.0
 13
0.0
 23
0.0
 14
0.5
 24
0.5
 15
0.5
 25
0.5
 16
-1.0
 26
0.0
 36
0.0
 17
0.0
 27
0.0
 37
0.0
 40
1488.76885
 41
0.011927
 42
50.0
 43
751.4661
 44
-751.4661
 50
0.0
 51
0.0
 71
     0
 72
   100
 73
     1
 74
     3
 75
     0
 76
     0
 77
     0
 78
     0
281
     0
 65
     1
110
0.0
120
0.0
130
0.0
111
1.0
121
0.0
131
0.0
112
0.0
122
1.0
132
0.0
 79
     0
146
0.0
  0
VPORT
  5
1E2
330
8
100
AcDbSymbolTableRecord
100
AcDbViewportTableRecord
  2
L6
 70
     0
 10
0.333333
 20
0.5
 11
0.666667
 21
1.0
 12
0.0
 22
0.0
 13
0.0
 23
0.0
 14
0.5
 24
0.5
 15
0.5
 25
0.5
 16
0.0
 26
0.0
 36
1.0
 17
0.0
 27
0.0
 37
0.0
 40
205.845833
 41
0.086262
 42
50.0
 43
744.384425
 44
-744.384425
 50
0.0
 51
0.0
 71
     0
 72
   100
 73
     1
 74
     3
 75
     0
 76
     0
 77
     0
 78
     0
281
     0
 65
     1
110
0.0
120
0.0
130
0.0
111
1.0
121
0.0
131
0.0
112
0.0
122
1.0
132
0.0
 79
     0
146
0.0
  0
VPORT
  5
1E3
330
8
100
AcDbSymbolTableRecord
100
AcDbViewportTableRecord
  2
L6
 70
     0
 10
0.333333
 20
0.0
 11
0.666667
 21
0.5
 12
0.0
 22
0.0
 13
0.0
 23
0.0
 14
0.5
 24
0.5
 15
0.5
 25
0.5
 16
0.0
 26
-1.0
 36
0.0
 17
0.0
 27
0.0
 37
0.0
 40
1488.76885
 41
0.011927
 42
50.0
 43
771.031448
 44
-771.031448
 50
0.0
 51
0.0
 71
     0
 72
   100
 73
     1
 74
     3
 75
     0
 76
     0
 77
     0
 78
     0
281
     0
 65
     1
110
0.0
120
0.0
130
0.0
111
1.0
121
0.0
131
0.0
112
0.0
122
1.0
132
0.0
 79
     0
146
0.0
  0
VPORT
  5
1E4
330
8
100
AcDbSymbolTableRecord
100
AcDbViewportTableRecord
  2
L6
 70
     0
 10
0.666667
 20
0.5
 11
1.0
 21
1.0
 12
0.0
 22
0.0
 13
0.0
 23
0.0
 14
0.5
 24
0.5
 15
0.5
 25
0.5
 16
0.5773502691896258
 26
-0.5773502691896258
 36
0.5773502691896258
 17
0.0
 27
0.0
 37
0.0
 40
1463.686724
 41
0.012132
 42
50.0
 43
762.734815
 44
-762.734815
 50
0.0
 51
0.0
 71
     0
 72
   100
 73
     1
 74
     3
 75
     0
 76
     0
 77
     0
 78
     0
281
     0
 65
     1
110
0.0
120
0.0
130
0.0
111
1.0
121
0.0
131
0.0
112
0.0
122
1.0
132
0.0
 79
     0
146
0.0
  0
VPORT
  5
1E5
330
8
100
AcDbSymbolTableRecord
100
AcDbViewportTableRecord
  2
L6
 70
     0
 10
0.666667
 20
0.0
 11
1.0
 21
0.5
 12
0.0
 22
0.0
 13
0.0
 23
0.0
 14
0.5
 24
0.5
 15
0.5
 25
0.5
 16
1.0
 26
0.0
 36
0.0
 17
0.0
 27
0.0
 37
0.0
 40
1488.76885
 41
0.011927
 42
50.0
 43
751.4661
 44
-751.4661
 50
0.0
 51
0.0
 71
     0
 72
   100
 73
     1
 74
     3
 75
     0
 76
     0
 77
     0
 78
     0
281
     0
 65
     1
110
0.0
120
0.0
130
0.0
111
1.0
121
0.0
131
0.0
112
0.0
122
1.0
132
0.0
 79
     0
146
0.0
  0
ENDTAB
  0
TABLE
  2
LTYPE
  5
5
330
0
100
AcDbSymbolTable
 70
    10
  0
LTYPE
  5
14
330
5
100
AcDbSymbolTableRecord
100
AcDbLinetypeTableRecord
  2
ByBlock
 70
     0
  3

 72
    65
 73
     0
 40
0.0
  0
LTYPE
  5
15
330
5
100
AcDbSymbolTableRecord
100
AcDbLinetypeTableRecord
  2
ByLayer
 70
     0
  3

 72
    65
 73
     0
 40
0.0
  0
LTYPE
  5
16
330
5
100
AcDbSymbolTableRecord
100
AcDbLinetypeTableRecord
  2
Continuous
 70
     0
  3
Solid line
 72
    65
 73
     0
 40
0.0
  0
LTYPE
  5
60
330
5
100
AcDbSymbolTableRecord
100
AcDbLinetypeTableRecord
  2
ACAD_ISO04W100
 70
     0
  3
ISO long-dash dot ____ . ____ . ____ . ____ . _
 72
    65
 73
     4
 40
30.0
 49
24.0
 74
     4
 75
     0
340
0
 46
0.0
 50
0.0
 44
0.0
 45
0.0
 49
-3.0
 74
     4
 75
     0
340
0
 46
0.0
 50
0.0
 44
0.0
 45
0.0
 49
0.0
 74
     4
 75
     0
340
0
 46
0.0
 50
0.0
 44
0.0
 45
0.0
 49
-3.0
 74
     4
 75
     0
340
0
 46
0.0
 50
0.0
 44
0.0
 45
0.0
  0
LTYPE
  5
61
330
5
100
AcDbSymbolTableRecord
100
AcDbLinetypeTableRecord
  2
ACAD_ISO05W100
 70
     0
  3
ISO long-dash double-dot ____ .. ____ .. ____ . 
 72
    65
 73
     6
 40
33.0
 49
24.0
 74
     4
 75
     0
340
0
 46
0.0
 50
0.0
 44
0.0
 45
0.0
 49
-3.0
 74
     4
 75
     0
340
0
 46
0.0
 50
0.0
 44
0.0
 45
0.0
 49
0.0
 74
     4
 75
     0
340
0
 46
0.0
 50
0.0
 44
0.0
 45
0.0
 49
-3.0
 74
     4
 75
     0
340
0
 46
0.0
 50
0.0
 44
0.0
 45
0.0
 49
0.0
 74
     4
 75
     0
340
0
 46
0.0
 50
0.0
 44
0.0
 45
0.0
 49
-3.0
 74
     4
 75
     0
340
0
 46
0.0
 50
0.0
 44
0.0
 45
0.0
  0
LTYPE
  5
62
330
5
100
AcDbSymbolTableRecord
100
AcDbLinetypeTableRecord
  2
ACAD_ISO06W100
 70
     0
  3
ISO long-dash triple-dot ____ ... ____ ... ____
 72
    65
 73
     8
 40
36.0
 49
24.0
 74
     4
 75
     0
340
0
 46
0.0
 50
0.0
 44
0.0
 45
0.0
 49
-3.0
 74
     4
 75
     0
340
0
 46
0.0
 50
0.0
 44
0.0
 45
0.0
 49
0.0
 74
     4
 75
     0
340
0
 46
0.0
 50
0.0
 44
0.0
 45
0.0
 49
-3.0
 74
     4
 75
     0
340
0
 46
0.0
 50
0.0
 44
0.0
 45
0.0
 49
0.0
 74
     4
 75
     0
340
0
 46
0.0
 50
0.0
 44
0.0
 45
0.0
 49
-3.0
 74
     4
 75
     0
340
0
 46
0.0
 50
0.0
 44
0.0
 45
0.0
 49
0.0
 74
     4
 75
     0
340
0
 46
0.0
 50
0.0
 44
0.0
 45
0.0
 49
-3.0
 74
     4
 75
     0
340
0
 46
0.0
 50
0.0
 44
0.0
 45
0.0
  0
LTYPE
  5
63
330
5
100
AcDbSymbolTableRecord
100
AcDbLinetypeTableRecord
  2
ACAD_ISO09W100
 70
     0
  3
ISO long-dash double-short-dash ____ __ __ ____
 72
    65
 73
     6
 40
45.0
 49
24.0
 74
     4
 75
     0
340
0
 46
0.0
 50
0.0
 44
0.0
 45
0.0
 49
-3.0
 74
     4
 75
     0
340
0
 46
0.0
 50
0.0
 44
0.0
 45
0.0
 49
6.0
 74
     4
 75
     0
340
0
 46
0.0
 50
0.0
 44
0.0
 45
0.0
 49
-3.0
 74
     4
 75
     0
340
0
 46
0.0
 50
0.0
 44
0.0
 45
0.0
 49
6.0
 74
     4
 75
     0
340
0
 46
0.0
 50
0.0
 44
0.0
 45
0.0
 49
-3.0
 74
     4
 75
     0
340
0
 46
0.0
 50
0.0
 44
0.0
 45
0.0
  0
LTYPE
  5
64
330
5
100
AcDbSymbolTableRecord
100
AcDbLinetypeTableRecord
  2
CENTER
 70
     0
  3
____ _ ____ _ ____ _ ____
 72
    65
 73
     4
 40
47.4
 49
22.0
 74
     4
 75
     0
340
0
 46
0.0
 50
0.0
 44
0.0
 45
0.0
 49
-8.5
 74
     4
 75
     0
340
0
 46
0.0
 50
0.0
 44
0.0
 45
0.0
 49
8.5
 74
     4
 75
     0
340
0
 46
0.0
 50
0.0
 44
0.0
 45
0.0
 49
-8.5
 74
     4
 75
     0
340
0
 46
0.0
 50
0.0
 44
0.0
 45
0.0
  0
LTYPE
  5
65
330
5
100
AcDbSymbolTableRecord
100
AcDbLinetypeTableRecord
  2
DASHDOT
 70
     0
  3
_._._._._._._._._._._._._._._._.
 72
    65
 73
     4
 40
70.0
 49
31.0
 74
     4
 75
     0
340
0
 46
0.0
 50
0.0
 44
0.0
 45
0.0
 49
-13.0
 74
     4
 75
     0
340
0
 46
0.0
 50
0.0
 44
0.0
 45
0.0
 49
13.0
 74
     4
 75
     0
340
0
 46
0.0
 50
0.0
 44
0.0
 45
0.0
 49
-13.0
 74
     4
 75
     0
340
0
 46
0.0
 50
0.0
 44
0.0
 45
0.0
  0
LTYPE
  5
66
330
5
100
AcDbSymbolTableRecord
100
AcDbLinetypeTableRecord
  2
DASHED
 70
     0
  3
__ __ __ __ __ __ __ __ __
 72
    65
 73
     2
 40
25.72
 49
12.86
 74
     4
 75
     0
340
0
 46
0.0
 50
0.0
 44
0.0
 45
0.0
 49
-12.86
 74
     4
 75
     0
340
0
 46
0.0
 50
0.0
 44
0.0
 45
0.0
  0
LTYPE
  5
67
330
5
100
AcDbSymbolTableRecord
100
AcDbLinetypeTableRecord
  2
DOT
 70
     0
  3
.........................
 72
    65
 73
     2
 40
10.0
 49
0.0
 74
     4
 75
     0
340
0
 46
0.0
 50
0.0
 44
0.0
 45
0.0
 49
-10.0
 74
     4
 75
     0
340
0
 46
0.0
 50
0.0
 44
0.0
 45
0.0
  0
LTYPE
  5
68
330
5
100
AcDbSymbolTableRecord
100
AcDbLinetypeTableRecord
  2
PHANTOM
 70
     0
  3
____ _ _ ____ _ _ _____ _ _ ____
 72
    65
 73
     6
 40
50.5
 49
18.0
 74
     4
 75
     0
340
0
 46
0.0
 50
0.0
 44
0.0
 45
0.0
 49
-6.5
 74
     4
 75
     0
340
0
 46
0.0
 50
0.0
 44
0.0
 45
0.0
 49
6.5
 74
     4
 75
     0
340
0
 46
0.0
 50
0.0
 44
0.0
 45
0.0
 49
-6.5
 74
     4
 75
     0
340
0
 46
0.0
 50
0.0
 44
0.0
 45
0.0
 49
6.5
 74
     4
 75
     0
340
0
 46
0.0
 50
0.0
 44
0.0
 45
0.0
 49
-6.5
 74
     4
 75
     0
340
0
 46
0.0
 50
0.0
 44
0.0
 45
0.0
  0
ENDTAB
  0
TABLE
  2
LAYER
  5
2
330
0
100
AcDbSymbolTable
 70
     5
  0
LAYER
  5
10
330
2
100
AcDbSymbolTableRecord
100
AcDbLayerTableRecord
  2
0
 70
     0
 62
     7
  6
Continuous
370
    -3
390
F
  0
LAYER
  5
69
330
2
100
AcDbSymbolTableRecord
100
AcDbLayerTableRecord
  2
Top$9
 70
     0
 62
     7
420
 16777215
  6
Continuous
370
    -3
390
F
  0
LAYER
  5
6A
330
2
100
AcDbSymbolTableRecord
100
AcDbLayerTableRecord
  2
SX$10
 70
     0
 62
     7
420
 16777215
  6
Continuous
370
    -3
390
F
  0
LAYER
  5
10E
330
2
100
AcDbSymbolTableRecord
100
AcDbLayerTableRecord
  2
1
 70
     0
 62
     7
420
 16777215
  6
Continuous
370
    -3
390
F
  0
LAYER
  5
125
330
2
100
AcDbSymbolTableRecord
100
AcDbLayerTableRecord
  2
Defpoints
 70
     0
 62
     7
  6
Continuous
290
     0
370
    -3
390
F
  0
ENDTAB
  0
TABLE
  2
STYLE
  5
3
330
0
100
AcDbSymbolTable
 70
     2
  0
STYLE
  5
11
330
3
100
AcDbSymbolTableRecord
100
AcDbTextStyleTableRecord
  2
Standard
 70
     0
 40
0.0
 41
1.0
 50
0.0
 71
     0
 42
0.2
  3
txt
  4

  0
STYLE
  5
114
330
3
100
AcDbSymbolTableRecord
100
AcDbTextStyleTableRecord
  2
Arial Unicode MS
 70
     0
 40
0.0
 41
1.0
 50
0.0
 71
     0
 42
0.2
  3
ARIALUNI.ttf
  4

1001
ACAD
1000
Arial Unicode MS
1071
        0
  0
ENDTAB
  0
TABLE
  2
VIEW
  5
6
330
0
100
AcDbSymbolTable
 70
     0
  0
ENDTAB
  0
TABLE
  2
UCS
  5
7
330
0
100
AcDbSymbolTable
 70
     0
  0
ENDTAB
  0
TABLE
  2
APPID
  5
9
330
0
100
AcDbSymbolTable
 70
     6
  0
APPID
  5
12
330
9
100
AcDbSymbolTableRecord
100
AcDbRegAppTableRecord
  2
ACAD
 70
     0
  0
APPID
  5
121
330
9
100
AcDbSymbolTableRecord
100
AcDbRegAppTableRecord
  2
ACAD_DSTYLE_DIMBREAK
 70
     0
  0
APPID
  5
1EC
330
9
100
AcDbSymbolTableRecord
100
AcDbRegAppTableRecord
  2
ACAD_DSTYLE_DIM_LINETYPE
 70
     0
  0
APPID
  5
1ED
330
9
100
AcDbSymbolTableRecord
100
AcDbRegAppTableRecord
  2
ACAD_DSTYLE_DIM_EXT1_LINETYPE
 70
     0
  0
APPID
  5
1EE
330
9
100
AcDbSymbolTableRecord
100
AcDbRegAppTableRecord
  2
ACAD_DSTYLE_DIM_EXT2_LINETYPE
 70
     0
  0
APPID
  5
22E
330
9
100
AcDbSymbolTableRecord
100
AcDbRegAppTableRecord
  2
ACAD_MLEADERVER
 70
     0
  0
ENDTAB
  0
TABLE
  2
DIMSTYLE
  5
A
330
0
100
AcDbSymbolTable
 70
     1
100
AcDbDimStyleTable
  0
DIMSTYLE
105
27
102
{ACAD_REACTORS
330
122
330
13B
330
153
330
16B
330
183
330
19B
330
1B3
102
}
330
A
100
AcDbSymbolTableRecord
100
AcDbDimStyleTableRecord
  2
Standard
 70
     0
178
     0
340
11
1001
ACAD_DSTYLE_DIMBREAK
1070
   391
1040
0.0
  0
ENDTAB
  0
TABLE
  2
BLOCK_RECORD
  5
1
330
0
100
AcDbSymbolTable
 70
    18
  0
BLOCK_RECORD
  5
1F
330
1
100
AcDbSymbolTableRecord
100
AcDbBlockTableRecord
  2
*Model_Space
340
22
  0
BLOCK_RECORD
  5
107
330
1
100
AcDbSymbolTableRecord
100
AcDbBlockTableRecord
  2
*PAPER_SPACE
340
1D5
  0
BLOCK_RECORD
  5
115
330
1
100
AcDbSymbolTableRecord
100
AcDbBlockTableRecord
  2
ASSORTED_DRAFT1
340
0
102
{BLKREFS
331
117
102
}
  0
BLOCK_RECORD
  5
11A
330
1
100
AcDbSymbolTableRecord
100
AcDbBlockTableRecord
  2
ASSORTED_DRAFT2
340
0
102
{BLKREFS
331
11C
102
}
  0
BLOCK_RECORD
  5
126
330
1
100
AcDbSymbolTableRecord
100
AcDbBlockTableRecord
  2
*D4
340
0
  0
BLOCK_RECORD
  5
132
330
1
100
AcDbSymbolTableRecord
100
AcDbBlockTableRecord
  2
_U0
340
0
  0
BLOCK_RECORD
  5
13E
330
1
100
AcDbSymbolTableRecord
100
AcDbBlockTableRecord
  2
*D6
340
0
  0
BLOCK_RECORD
  5
14A
330
1
100
AcDbSymbolTableRecord
100
AcDbBlockTableRecord
  2
_U1
340
0
  0
BLOCK_RECORD
  5
156
330
1
100
AcDbSymbolTableRecord
100
AcDbBlockTableRecord
  2
*D8
340
0
  0
BLOCK_RECORD
  5
162
330
1
100
AcDbSymbolTableRecord
100
AcDbBlockTableRecord
  2
_U2
340
0
  0
BLOCK_RECORD
  5
16E
330
1
100
AcDbSymbolTableRecord
100
AcDbBlockTableRecord
  2
*D10
340
0
  0
BLOCK_RECORD
  5
17A
330
1
100
AcDbSymbolTableRecord
100
AcDbBlockTableRecord
  2
_U3
340
0
  0
BLOCK_RECORD
  5
186
330
1
100
AcDbSymbolTableRecord
100
AcDbBlockTableRecord
  2
*D12
340
0
  0
BLOCK_RECORD
  5
192
330
1
100
AcDbSymbolTableRecord
100
AcDbBlockTableRecord
  2
_U4
340
0
  0
BLOCK_RECORD
  5
19E
330
1
100
AcDbSymbolTableRecord
100
AcDbBlockTableRecord
  2
*D14
340
0
  0
BLOCK_RECORD
  5
1AA
330
1
100
AcDbSymbolTableRecord
100
AcDbBlockTableRecord
  2
_U5
340
0
  0
BLOCK_RECORD
  5
1B6
330
1
100
AcDbSymbolTableRecord
100
AcDbBlockTableRecord
  2
*D16
340
0
  0
BLOCK_RECORD
  5
1C2
330
1
100
AcDbSymbolTableRecord
100
AcDbBlockTableRecord
  2
_U6
340
0
  0
BLOCK_RECORD
  5
1CB
330
1
100
AcDbSymbolTableRecord
100
AcDbBlockTableRecord
  2
ASSORTED_DRAFT3
340
0
102
{BLKREFS
331
1CD
102
}
  0
BLOCK_RECORD
  5
1D0
330
1
100
AcDbSymbolTableRecord
100
AcDbBlockTableRecord
  2
ASSORTED_DRAFT4
340
0
102
{BLKREFS
331
1D2
102
}
  0
ENDTAB
  0
ENDSEC
  0
SECTION
  2
BLOCKS
  0
BLOCK
  5
20
330
1F
100
AcDbEntity
  8
0
100
AcDbBlockBegin
  2
*Model_Space
 70
     0
 10
0.0
 20
0.0
 30
0.0
  3
*Model_Space
  1

  0
ENDBLK
  5
21
330
1F
100
AcDbEntity
  8
0
100
AcDbBlockEnd
  0
BLOCK
  5
108
330
107
100
AcDbEntity
 67
     1
  8
0
100
AcDbBlockBegin
  2
*PAPER_SPACE
 70
     0
 10
0.0
 20
0.0
 30
0.0
  3
*PAPER_SPACE
  1

  0
ENDBLK
  5
109
330
107
100
AcDbEntity
 67
     1
  8
0
100
AcDbBlockEnd
  0
BLOCK
  5
118
330
115
100
AcDbEntity
  8
0
100
AcDbBlockBegin
  2
ASSORTED_DRAFT1
 70
     0
 10
0.0
 20
0.0
 30
0.0
  3
ASSORTED_DRAFT1
  1

  0
SOLID
  5
116
330
115
100
AcDbEntity
  8
0
 62
    18
370
    70
100
AcDbTrace
 10
108.583115
 20
382.79323
 30
0.0
 11
109.46475
 21
377.793233
 31
0.0
 12
107.70148
 22
377.793227
 32
0.0
 13
108.583115
 23
382.79323
 33
0.0
  0
ENDBLK
  5
119
330
115
100
AcDbEntity
  8
0
100
AcDbBlockEnd
  0
BLOCK
  5
11D
330
11A
100
AcDbEntity
  8
0
100
AcDbBlockBegin
  2
ASSORTED_DRAFT2
 70
     0
 10
0.0
 20
0.0
 30
0.0
  3
ASSORTED_DRAFT2
  1

  0
SOLID
  5
11B
330
11A
100
AcDbEntity
  8
0
 62
    18
370
    70
100
AcDbTrace
 10
1228.267681
 20
382.79323
 30
0.0
 11
1229.149315
 21
377.793233
 31
0.0
 12
1227.386046
 22
377.793227
 32
0.0
 13
1228.267681
 23
382.79323
 33
0.0
  0
ENDBLK
  5
11E
330
11A
100
AcDbEntity
  8
0
100
AcDbBlockEnd
  0
BLOCK
  5
127
330
126
100
AcDbEntity
  8
0
100
AcDbBlockBegin
  2
*D4
 70
     1
 10
0.0
 20
0.0
 30
0.0
  3
*D4
  1

  0
LINE
  5
129
330
126
100
AcDbEntity
  8
0
 62
    18
370
    -2
100
AcDbLine
 10
681.084174
 20
381.96823
 30
0.0
 11
681.084174
 21
31.96823
 31
0.0
  0
LINE
  5
12A
330
126
100
AcDbEntity
  8
0
 62
    18
370
    -2
100
AcDbLine
 10
1151.084174
 20
91.96823
 30
0.0
 11
1151.084174
 21
31.96823
 31
0.0
  0
LINE
  5
12B
330
126
100
AcDbEntity
  8
0
 62
    18
370
    -2
100
AcDbLine
 10
701.084174
 20
33.96823
 30
0.0
 11
1131.084174
 21
33.96823
 31
0.0
  0
SOLID
  5
12C
330
126
100
AcDbEntity
  8
0
 62
    18
100
AcDbTrace
 10
701.084174
 20
37.301563
 30
0.0
 11
701.084174
 21
30.634897
 31
0.0
 12
681.084174
 22
33.96823
 32
0.0
 13
681.084174
 23
33.96823
 33
0.0
  0
SOLID
  5
12D
330
126
100
AcDbEntity
  8
0
 62
    18
100
AcDbTrace
 10
1131.084174
 20
30.634897
 30
0.0
 11
1131.084174
 21
37.301563
 31
0.0
 12
1151.084174
 22
33.96823
 32
0.0
 13
1151.084174
 23
33.96823
 33
0.0
  0
MTEXT
  5
12E
330
126
100
AcDbEntity
  8
0
 62
    18
370
    70
100
AcDbMText
 10
916.084174
 20
64.133395
 30
0.0
 40
15.0
 41
0.0
 71
     5
 72
     1
  1
\A1;470
  7
Arial Unicode MS
 73
     1
 44
1.0
  0
POINT
  5
12F
330
126
100
AcDbEntity
  8
Defpoints
 62
     0
100
AcDbPoint
 10
681.084174
 20
382.96823
 30
0.0
  0
POINT
  5
130
330
126
100
AcDbEntity
  8
Defpoints
 62
     0
100
AcDbPoint
 10
1151.084174
 20
92.96823
 30
0.0
  0
POINT
  5
131
330
126
100
AcDbEntity
  8
Defpoints
 62
     0
100
AcDbPoint
 10
1151.084174
 20
33.96823
 30
0.0
  0
ENDBLK
  5
128
330
126
100
AcDbEntity
  8
0
100
AcDbBlockEnd
  0
BLOCK
  5
139
330
132
100
AcDbEntity
  8
0
100
AcDbBlockBegin
  2
_U0
 70
     0
 10
0.0
 20
0.0
 30
0.0
  3
_U0
  1

  0
MTEXT
  5
133
330
132
100
AcDbEntity
  8
1
  6
Continuous
 62
    18
370
    13
100
AcDbMText
 10
900.147933
 20
36.464783
 30
0.0
 40
15.0
 41
0.0
 71
     7
 72
     5
  1
\fArial Unicode MS|b0|i0;\W1.0000;470
  7
Arial Unicode MS
 73
     2
 44
1.069626
  0
LINE
  5
134
330
132
100
AcDbEntity
  8
1
 62
    18
370
    13
100
AcDbLine
 10
681.084174
 20
381.96823
 30
0.0
 11
681.084174
 21
31.96823
 31
0.0
  0
LINE
  5
135
330
132
100
AcDbEntity
  8
1
 62
    18
370
    13
100
AcDbLine
 10
1151.084174
 20
91.96823
 30
0.0
 11
1151.084174
 21
31.96823
 31
0.0
  0
LINE
  5
136
330
132
100
AcDbEntity
  8
1
 62
    18
370
    13
100
AcDbLine
 10
681.084174
 20
33.96823
 30
0.0
 11
1151.084174
 21
33.96823
 31
0.0
  0
SOLID
  5
137
330
132
100
AcDbEntity
  8
1
 62
    18
370
    70
100
AcDbTrace
 10
681.084174
 20
33.96823
 30
0.0
 11
701.084164
 21
36.60128
 31
0.0
 12
701.084184
 22
31.33518
 32
0.0
 13
701.084184
 23
31.33518
 33
0.0
  0
SOLID
  5
138
330
132
100
AcDbEntity
  8
1
 62
    18
370
    70
100
AcDbTrace
 10
1151.084174
 20
33.96823
 30
0.0
 11
1131.084184
 21
31.33518
 31
0.0
 12
1131.084164
 22
36.60128
 32
0.0
 13
1131.084164
 23
36.60128
 33
0.0
  0
ENDBLK
  5
13A
330
132
100
AcDbEntity
  8
0
100
AcDbBlockEnd
  0
BLOCK
  5
13F
330
13E
100
AcDbEntity
  8
0
100
AcDbBlockBegin
  2
*D6
 70
     1
 10
0.0
 20
0.0
 30
0.0
  3
*D6
  1

  0
LINE
  5
141
330
13E
100
AcDbEntity
  8
0
 62
    18
370
    -2
100
AcDbLine
 10
220.084174
 20
522.96823
 30
0.0
 11
146.084174
 21
522.96823
 31
0.0
  0
LINE
  5
142
330
13E
100
AcDbEntity
  8
0
 62
    18
370
    -2
100
AcDbLine
 10
220.084174
 20
82.96823
 30
0.0
 11
146.084174
 21
82.96823
 31
0.0
  0
LINE
  5
143
330
13E
100
AcDbEntity
  8
0
 62
    18
370
    -2
100
AcDbLine
 10
148.084174
 20
502.96823
 30
0.0
 11
148.084174
 21
102.96823
 31
0.0
  0
SOLID
  5
144
330
13E
100
AcDbEntity
  8
0
 62
    18
100
AcDbTrace
 10
151.417507
 20
502.96823
 30
0.0
 11
144.750841
 21
502.96823
 31
0.0
 12
148.084174
 22
522.96823
 32
0.0
 13
148.084174
 23
522.96823
 33
0.0
  0
SOLID
  5
145
330
13E
100
AcDbEntity
  8
0
 62
    18
100
AcDbTrace
 10
144.750841
 20
102.96823
 30
0.0
 11
151.417507
 21
102.96823
 31
0.0
 12
148.084174
 22
82.96823
 32
0.0
 13
148.084174
 23
82.96823
 33
0.0
  0
MTEXT
  5
146
330
13E
100
AcDbEntity
  8
0
 62
    18
370
    70
100
AcDbMText
 10
117.919009
 20
302.96823
 30
0.0
 40
15.0
 41
0.0
 71
     5
 72
     1
  1
\A1;440
  7
Arial Unicode MS
 11
6.459479416000909E-17
 21
1.0
 31
0.0
 73
     1
 44
1.0
  0
POINT
  5
147
330
13E
100
AcDbEntity
  8
Defpoints
 62
     0
100
AcDbPoint
 10
221.084174
 20
522.96823
 30
0.0
  0
POINT
  5
148
330
13E
100
AcDbEntity
  8
Defpoints
 62
     0
100
AcDbPoint
 10
221.084174
 20
82.96823
 30
0.0
  0
POINT
  5
149
330
13E
100
AcDbEntity
  8
Defpoints
 62
     0
100
AcDbPoint
 10
148.084174
 20
82.96823
 30
0.0
  0
ENDBLK
  5
140
330
13E
100
AcDbEntity
  8
0
100
AcDbBlockEnd
  0
BLOCK
  5
151
330
14A
100
AcDbEntity
  8
0
100
AcDbBlockBegin
  2
_U1
 70
     0
 10
0.0
 20
0.0
 30
0.0
  3
_U1
  1

  0
MTEXT
  5
14B
330
14A
100
AcDbEntity
  8
1
  6
Continuous
 62
    18
370
    13
100
AcDbMText
 10
147.057621
 20
286.911988
 30
0.0
 40
15.0
 41
0.0
 71
     7
 72
     5
  1
\fArial Unicode MS|b0|i0;\W1.0000;440
  7
Arial Unicode MS
 11
6.123233995736766E-17
 21
1.0
 31
0.0
 73
     2
 44
1.069626
  0
LINE
  5
14C
330
14A
100
AcDbEntity
  8
1
 62
    18
370
    13
100
AcDbLine
 10
220.084174
 20
522.96823
 30
0.0
 11
146.084174
 21
522.96823
 31
0.0
  0
LINE
  5
14D
330
14A
100
AcDbEntity
  8
1
 62
    18
370
    13
100
AcDbLine
 10
220.084174
 20
82.96823
 30
0.0
 11
146.084174
 21
82.96823
 31
0.0
  0
LINE
  5
14E
330
14A
100
AcDbEntity
  8
1
 62
    18
370
    13
100
AcDbLine
 10
148.084174
 20
522.96823
 30
0.0
 11
148.084174
 21
82.96823
 31
0.0
  0
SOLID
  5
14F
330
14A
100
AcDbEntity
  8
1
 62
    18
370
    70
100
AcDbTrace
 10
148.084174
 20
522.96823
 30
0.0
 11
150.717224
 21
502.96824
 31
0.0
 12
145.451124
 22
502.96822
 32
0.0
 13
145.451124
 23
502.96822
 33
0.0
  0
SOLID
  5
150
330
14A
100
AcDbEntity
  8
1
 62
    18
370
    70
100
AcDbTrace
 10
148.084174
 20
82.96823
 30
0.0
 11
145.451124
 21
102.96822
 31
0.0
 12
150.717224
 22
102.96824
 32
0.0
 13
150.717224
 23
102.96824
 33
0.0
  0
ENDBLK
  5
152
330
14A
100
AcDbEntity
  8
0
100
AcDbBlockEnd
  0
BLOCK
  5
157
330
156
100
AcDbEntity
  8
0
100
AcDbBlockBegin
  2
*D8
 70
     1
 10
0.0
 20
0.0
 30
0.0
  3
*D8
  1

  0
LINE
  5
159
330
156
100
AcDbEntity
  8
0
 62
    18
370
    -2
100
AcDbLine
 10
211.084174
 20
513.96823
 30
0.0
 11
211.084174
 21
608.96823
 31
0.0
  0
LINE
  5
15A
330
156
100
AcDbEntity
  8
0
 62
    18
370
    -2
100
AcDbLine
 10
1151.084174
 20
513.96823
 30
0.0
 11
1151.084174
 21
608.96823
 31
0.0
  0
LINE
  5
15B
330
156
100
AcDbEntity
  8
0
 62
    18
370
    -2
100
AcDbLine
 10
231.084174
 20
606.96823
 30
0.0
 11
1131.084174
 21
606.96823
 31
0.0
  0
SOLID
  5
15C
330
156
100
AcDbEntity
  8
0
 62
    18
100
AcDbTrace
 10
231.084174
 20
610.301563
 30
0.0
 11
231.084174
 21
603.634897
 31
0.0
 12
211.084174
 22
606.96823
 32
0.0
 13
211.084174
 23
606.96823
 33
0.0
  0
SOLID
  5
15D
330
156
100
AcDbEntity
  8
0
 62
    18
100
AcDbTrace
 10
1131.084174
 20
603.634897
 30
0.0
 11
1131.084174
 21
610.301563
 31
0.0
 12
1151.084174
 22
606.96823
 32
0.0
 13
1151.084174
 23
606.96823
 33
0.0
  0
MTEXT
  5
15E
330
156
100
AcDbEntity
  8
0
 62
    18
370
    70
100
AcDbMText
 10
681.084174
 20
637.133395
 30
0.0
 40
15.0
 41
0.0
 71
     5
 72
     1
  1
\A1;940
  7
Arial Unicode MS
 73
     1
 44
1.0
  0
POINT
  5
15F
330
156
100
AcDbEntity
  8
Defpoints
 62
     0
100
AcDbPoint
 10
211.084174
 20
512.96823
 30
0.0
  0
POINT
  5
160
330
156
100
AcDbEntity
  8
Defpoints
 62
     0
100
AcDbPoint
 10
1151.084174
 20
512.96823
 30
0.0
  0
POINT
  5
161
330
156
100
AcDbEntity
  8
Defpoints
 62
     0
100
AcDbPoint
 10
1151.084174
 20
606.96823
 30
0.0
  0
ENDBLK
  5
158
330
156
100
AcDbEntity
  8
0
100
AcDbBlockEnd
  0
BLOCK
  5
169
330
162
100
AcDbEntity
  8
0
100
AcDbBlockBegin
  2
_U2
 70
     0
 10
0.0
 20
0.0
 30
0.0
  3
_U2
  1

  0
MTEXT
  5
163
330
162
100
AcDbEntity
  8
1
  6
Continuous
 62
    18
370
    13
100
AcDbMText
 10
665.147933
 20
609.464783
 30
0.0
 40
15.0
 41
0.0
 71
     7
 72
     5
  1
\fArial Unicode MS|b0|i0;\W1.0000;940
  7
Arial Unicode MS
 73
     2
 44
1.069626
  0
LINE
  5
164
330
162
100
AcDbEntity
  8
1
 62
    18
370
    13
100
AcDbLine
 10
211.084174
 20
513.96823
 30
0.0
 11
211.084174
 21
608.96823
 31
0.0
  0
LINE
  5
165
330
162
100
AcDbEntity
  8
1
 62
    18
370
    13
100
AcDbLine
 10
1151.084174
 20
513.96823
 30
0.0
 11
1151.084174
 21
608.96823
 31
0.0
  0
LINE
  5
166
330
162
100
AcDbEntity
  8
1
 62
    18
370
    13
100
AcDbLine
 10
211.084174
 20
606.96823
 30
0.0
 11
1151.084174
 21
606.96823
 31
0.0
  0
SOLID
  5
167
330
162
100
AcDbEntity
  8
1
 62
    18
370
    70
100
AcDbTrace
 10
211.084174
 20
606.96823
 30
0.0
 11
231.084164
 21
609.60128
 31
0.0
 12
231.084184
 22
604.33518
 32
0.0
 13
231.084184
 23
604.33518
 33
0.0
  0
SOLID
  5
168
330
162
100
AcDbEntity
  8
1
 62
    18
370
    70
100
AcDbTrace
 10
1151.084174
 20
606.96823
 30
0.0
 11
1131.084184
 21
604.33518
 31
0.0
 12
1131.084164
 22
609.60128
 32
0.0
 13
1131.084164
 23
609.60128
 33
0.0
  0
ENDBLK
  5
16A
330
162
100
AcDbEntity
  8
0
100
AcDbBlockEnd
  0
BLOCK
  5
16F
330
16E
100
AcDbEntity
  8
0
100
AcDbBlockBegin
  2
*D10
 70
     1
 10
0.0
 20
0.0
 30
0.0
  3
*D10
  1

  0
LINE
  5
171
330
16E
100
AcDbEntity
  8
0
 62
    18
370
    -2
100
AcDbLine
 10
231.084174
 20
491.96823
 30
0.0
 11
231.084174
 21
559.96823
 31
0.0
  0
LINE
  5
172
330
16E
100
AcDbEntity
  8
0
 62
    18
370
    -2
100
AcDbLine
 10
1131.084174
 20
491.96823
 30
0.0
 11
1131.084174
 21
559.96823
 31
0.0
  0
LINE
  5
173
330
16E
100
AcDbEntity
  8
0
 62
    18
370
    -2
100
AcDbLine
 10
251.084174
 20
557.96823
 30
0.0
 11
1111.084174
 21
557.96823
 31
0.0
  0
SOLID
  5
174
330
16E
100
AcDbEntity
  8
0
 62
    18
100
AcDbTrace
 10
251.084174
 20
561.301563
 30
0.0
 11
251.084174
 21
554.634897
 31
0.0
 12
231.084174
 22
557.96823
 32
0.0
 13
231.084174
 23
557.96823
 33
0.0
  0
SOLID
  5
175
330
16E
100
AcDbEntity
  8
0
 62
    18
100
AcDbTrace
 10
1111.084174
 20
554.634897
 30
0.0
 11
1111.084174
 21
561.301563
 31
0.0
 12
1131.084174
 22
557.96823
 32
0.0
 13
1131.084174
 23
557.96823
 33
0.0
  0
MTEXT
  5
176
330
16E
100
AcDbEntity
  8
0
 62
    18
370
    70
100
AcDbMText
 10
681.084174
 20
588.133395
 30
0.0
 40
15.0
 41
0.0
 71
     5
 72
     1
  1
\A1;900
  7
Arial Unicode MS
 73
     1
 44
1.0
  0
POINT
  5
177
330
16E
100
AcDbEntity
  8
Defpoints
 62
     0
100
AcDbPoint
 10
231.084174
 20
490.96823
 30
0.0
  0
POINT
  5
178
330
16E
100
AcDbEntity
  8
Defpoints
 62
     0
100
AcDbPoint
 10
1131.084174
 20
490.96823
 30
0.0
  0
POINT
  5
179
330
16E
100
AcDbEntity
  8
Defpoints
 62
     0
100
AcDbPoint
 10
1131.084174
 20
557.96823
 30
0.0
  0
ENDBLK
  5
170
330
16E
100
AcDbEntity
  8
0
100
AcDbBlockEnd
  0
BLOCK
  5
181
330
17A
100
AcDbEntity
  8
0
100
AcDbBlockBegin
  2
_U3
 70
     0
 10
0.0
 20
0.0
 30
0.0
  3
_U3
  1

  0
MTEXT
  5
17B
330
17A
100
AcDbEntity
  8
1
  6
Continuous
 62
    18
370
    13
100
AcDbMText
 10
665.147933
 20
560.464783
 30
0.0
 40
15.0
 41
0.0
 71
     7
 72
     5
  1
\fArial Unicode MS|b0|i0;\W1.0000;900
  7
Arial Unicode MS
 73
     2
 44
1.069626
  0
LINE
  5
17C
330
17A
100
AcDbEntity
  8
1
 62
    18
370
    13
100
AcDbLine
 10
231.084174
 20
491.96823
 30
0.0
 11
231.084174
 21
559.96823
 31
0.0
  0
LINE
  5
17D
330
17A
100
AcDbEntity
  8
1
 62
    18
370
    13
100
AcDbLine
 10
1131.084174
 20
491.96823
 30
0.0
 11
1131.084174
 21
559.96823
 31
0.0
  0
LINE
  5
17E
330
17A
100
AcDbEntity
  8
1
 62
    18
370
    13
100
AcDbLine
 10
231.084174
 20
557.96823
 30
0.0
 11
1131.084174
 21
557.96823
 31
0.0
  0
SOLID
  5
17F
330
17A
100
AcDbEntity
  8
1
 62
    18
370
    70
100
AcDbTrace
 10
231.084174
 20
557.96823
 30
0.0
 11
251.084164
 21
560.60128
 31
0.0
 12
251.084184
 22
555.33518
 32
0.0
 13
251.084184
 23
555.33518
 33
0.0
  0
SOLID
  5
180
330
17A
100
AcDbEntity
  8
1
 62
    18
370
    70
100
AcDbTrace
 10
1131.084174
 20
557.96823
 30
0.0
 11
1111.084184
 21
555.33518
 31
0.0
 12
1111.084164
 22
560.60128
 32
0.0
 13
1111.084164
 23
560.60128
 33
0.0
  0
ENDBLK
  5
182
330
17A
100
AcDbEntity
  8
0
100
AcDbBlockEnd
  0
BLOCK
  5
187
330
186
100
AcDbEntity
  8
0
100
AcDbBlockBegin
  2
*D12
 70
     1
 10
0.0
 20
0.0
 30
0.0
  3
*D12
  1

  0
LINE
  5
189
330
186
100
AcDbEntity
  8
0
 62
    18
370
    -2
100
AcDbLine
 10
242.084174
 20
502.96823
 30
0.0
 11
181.084174
 21
502.96823
 31
0.0
  0
LINE
  5
18A
330
186
100
AcDbEntity
  8
0
 62
    18
370
    -2
100
AcDbLine
 10
242.084174
 20
102.96823
 30
0.0
 11
181.084174
 21
102.96823
 31
0.0
  0
LINE
  5
18B
330
186
100
AcDbEntity
  8
0
 62
    18
370
    -2
100
AcDbLine
 10
183.084174
 20
482.96823
 30
0.0
 11
183.084174
 21
122.96823
 31
0.0
  0
SOLID
  5
18C
330
186
100
AcDbEntity
  8
0
 62
    18
100
AcDbTrace
 10
186.417507
 20
482.96823
 30
0.0
 11
179.750841
 21
482.96823
 31
0.0
 12
183.084174
 22
502.96823
 32
0.0
 13
183.084174
 23
502.96823
 33
0.0
  0
SOLID
  5
18D
330
186
100
AcDbEntity
  8
0
 62
    18
100
AcDbTrace
 10
179.750841
 20
122.96823
 30
0.0
 11
186.417507
 21
122.96823
 31
0.0
 12
183.084174
 22
102.96823
 32
0.0
 13
183.084174
 23
102.96823
 33
0.0
  0
MTEXT
  5
18E
330
186
100
AcDbEntity
  8
0
 62
    18
370
    70
100
AcDbMText
 10
152.919009
 20
302.96823
 30
0.0
 40
15.0
 41
0.0
 71
     5
 72
     1
  1
\A1;400
  7
Arial Unicode MS
 11
7.105427357601002E-17
 21
1.0
 31
0.0
 73
     1
 44
1.0
  0
POINT
  5
18F
330
186
100
AcDbEntity
  8
Defpoints
 62
     0
100
AcDbPoint
 10
243.084174
 20
502.96823
 30
0.0
  0
POINT
  5
190
330
186
100
AcDbEntity
  8
Defpoints
 62
     0
100
AcDbPoint
 10
243.084174
 20
102.96823
 30
0.0
  0
POINT
  5
191
330
186
100
AcDbEntity
  8
Defpoints
 62
     0
100
AcDbPoint
 10
183.084174
 20
102.96823
 30
0.0
  0
ENDBLK
  5
188
330
186
100
AcDbEntity
  8
0
100
AcDbBlockEnd
  0
BLOCK
  5
199
330
192
100
AcDbEntity
  8
0
100
AcDbBlockBegin
  2
_U4
 70
     0
 10
0.0
 20
0.0
 30
0.0
  3
_U4
  1

  0
MTEXT
  5
193
330
192
100
AcDbEntity
  8
1
  6
Continuous
 62
    18
370
    13
100
AcDbMText
 10
182.057621
 20
286.911988
 30
0.0
 40
15.0
 41
0.0
 71
     7
 72
     5
  1
\fArial Unicode MS|b0|i0;\W1.0000;400
  7
Arial Unicode MS
 11
6.123233995736766E-17
 21
1.0
 31
0.0
 73
     2
 44
1.069626
  0
LINE
  5
194
330
192
100
AcDbEntity
  8
1
 62
    18
370
    13
100
AcDbLine
 10
242.084174
 20
502.96823
 30
0.0
 11
181.084174
 21
502.96823
 31
0.0
  0
LINE
  5
195
330
192
100
AcDbEntity
  8
1
 62
    18
370
    13
100
AcDbLine
 10
242.084174
 20
102.96823
 30
0.0
 11
181.084174
 21
102.96823
 31
0.0
  0
LINE
  5
196
330
192
100
AcDbEntity
  8
1
 62
    18
370
    13
100
AcDbLine
 10
183.084174
 20
502.96823
 30
0.0
 11
183.084174
 21
102.96823
 31
0.0
  0
SOLID
  5
197
330
192
100
AcDbEntity
  8
1
 62
    18
370
    70
100
AcDbTrace
 10
183.084174
 20
502.96823
 30
0.0
 11
185.717224
 21
482.96824
 31
0.0
 12
180.451124
 22
482.96822
 32
0.0
 13
180.451124
 23
482.96822
 33
0.0
  0
SOLID
  5
198
330
192
100
AcDbEntity
  8
1
 62
    18
370
    70
100
AcDbTrace
 10
183.084174
 20
102.96823
 30
0.0
 11
180.451124
 21
122.96822
 31
0.0
 12
185.717224
 22
122.96824
 32
0.0
 13
185.717224
 23
122.96824
 33
0.0
  0
ENDBLK
  5
19A
330
192
100
AcDbEntity
  8
0
100
AcDbBlockEnd
  0
BLOCK
  5
19F
330
19E
100
AcDbEntity
  8
0
100
AcDbBlockBegin
  2
*D14
 70
     1
 10
0.0
 20
0.0
 30
0.0
  3
*D14
  1

  0
LINE
  5
1A1
330
19E
100
AcDbEntity
  8
0
 62
    18
370
    -2
100
AcDbLine
 10
1142.084174
 20
522.96823
 30
0.0
 11
1209.084174
 21
522.96823
 31
0.0
  0
LINE
  5
1A2
330
19E
100
AcDbEntity
  8
0
 62
    18
370
    -2
100
AcDbLine
 10
682.084174
 20
382.96823
 30
0.0
 11
1209.084174
 21
382.96823
 31
0.0
  0
LINE
  5
1A3
330
19E
100
AcDbEntity
  8
0
 62
    18
370
    -2
100
AcDbLine
 10
1207.084174
 20
502.96823
 30
0.0
 11
1207.084174
 21
402.96823
 31
0.0
  0
SOLID
  5
1A4
330
19E
100
AcDbEntity
  8
0
 62
    18
100
AcDbTrace
 10
1210.417507
 20
502.96823
 30
0.0
 11
1203.750841
 21
502.96823
 31
0.0
 12
1207.084174
 22
522.96823
 32
0.0
 13
1207.084174
 23
522.96823
 33
0.0
  0
SOLID
  5
1A5
330
19E
100
AcDbEntity
  8
0
 62
    18
100
AcDbTrace
 10
1203.750841
 20
402.96823
 30
0.0
 11
1210.417507
 21
402.96823
 31
0.0
 12
1207.084174
 22
382.96823
 32
0.0
 13
1207.084174
 23
382.96823
 33
0.0
  0
MTEXT
  5
1A6
330
19E
100
AcDbEntity
  8
0
 62
    18
370
    70
100
AcDbMText
 10
1176.919009
 20
452.96823
 30
0.0
 40
15.0
 41
0.0
 71
     5
 72
     1
  1
\A1;140
  7
Arial Unicode MS
 11
0.0
 21
1.0
 31
0.0
 73
     1
 44
1.0
  0
POINT
  5
1A7
330
19E
100
AcDbEntity
  8
Defpoints
 62
     0
100
AcDbPoint
 10
1141.084174
 20
522.96823
 30
0.0
  0
POINT
  5
1A8
330
19E
100
AcDbEntity
  8
Defpoints
 62
     0
100
AcDbPoint
 10
681.084174
 20
382.96823
 30
0.0
  0
POINT
  5
1A9
330
19E
100
AcDbEntity
  8
Defpoints
 62
     0
100
AcDbPoint
 10
1207.084174
 20
382.96823
 30
0.0
  0
ENDBLK
  5
1A0
330
19E
100
AcDbEntity
  8
0
100
AcDbBlockEnd
  0
BLOCK
  5
1B1
330
1AA
100
AcDbEntity
  8
0
100
AcDbBlockBegin
  2
_U5
 70
     0
 10
0.0
 20
0.0
 30
0.0
  3
_U5
  1

  0
MTEXT
  5
1AB
330
1AA
100
AcDbEntity
  8
1
  6
Continuous
 62
    18
370
    13
100
AcDbMText
 10
1206.057621
 20
436.911988
 30
0.0
 40
15.0
 41
0.0
 71
     7
 72
     5
  1
\fArial Unicode MS|b0|i0;\W1.0000;140
  7
Arial Unicode MS
 11
6.123233995736766E-17
 21
1.0
 31
0.0
 73
     2
 44
1.069626
  0
LINE
  5
1AC
330
1AA
100
AcDbEntity
  8
1
 62
    18
370
    13
100
AcDbLine
 10
1142.084174
 20
522.96823
 30
0.0
 11
1209.084174
 21
522.96823
 31
0.0
  0
LINE
  5
1AD
330
1AA
100
AcDbEntity
  8
1
 62
    18
370
    13
100
AcDbLine
 10
682.084174
 20
382.96823
 30
0.0
 11
1209.084174
 21
382.96823
 31
0.0
  0
LINE
  5
1AE
330
1AA
100
AcDbEntity
  8
1
 62
    18
370
    13
100
AcDbLine
 10
1207.084174
 20
522.96823
 30
0.0
 11
1207.084174
 21
382.96823
 31
0.0
  0
SOLID
  5
1AF
330
1AA
100
AcDbEntity
  8
1
 62
    18
370
    70
100
AcDbTrace
 10
1207.084174
 20
522.96823
 30
0.0
 11
1209.717224
 21
502.96824
 31
0.0
 12
1204.451124
 22
502.96822
 32
0.0
 13
1204.451124
 23
502.96822
 33
0.0
  0
SOLID
  5
1B0
330
1AA
100
AcDbEntity
  8
1
 62
    18
370
    70
100
AcDbTrace
 10
1207.084174
 20
382.96823
 30
0.0
 11
1204.451124
 21
402.96822
 31
0.0
 12
1209.717224
 22
402.96824
 32
0.0
 13
1209.717224
 23
402.96824
 33
0.0
  0
ENDBLK
  5
1B2
330
1AA
100
AcDbEntity
  8
0
100
AcDbBlockEnd
  0
BLOCK
  5
1B7
330
1B6
100
AcDbEntity
  8
0
100
AcDbBlockBegin
  2
*D16
 70
     1
 10
0.0
 20
0.0
 30
0.0
  3
*D16
  1

  0
LINE
  5
1B9
330
1B6
100
AcDbEntity
  8
0
 62
    18
370
    -2
100
AcDbLine
 10
210.584174
 20
923.626255
 30
0.0
 11
181.084174
 21
923.626255
 31
0.0
  0
LINE
  5
1BA
330
1B6
100
AcDbEntity
  8
0
 62
    18
370
    -2
100
AcDbLine
 10
623.675875
 20
718.182584
 30
0.0
 11
181.084174
 21
718.182584
 31
0.0
  0
LINE
  5
1BB
330
1B6
100
AcDbEntity
  8
0
 62
    18
370
    -2
100
AcDbLine
 10
183.084174
 20
903.626255
 30
0.0
 11
183.084174
 21
738.182584
 31
0.0
  0
SOLID
  5
1BC
330
1B6
100
AcDbEntity
  8
0
 62
    18
100
AcDbTrace
 10
186.417507
 20
903.626255
 30
0.0
 11
179.750841
 21
903.626255
 31
0.0
 12
183.084174
 22
923.626255
 32
0.0
 13
183.084174
 23
923.626255
 33
0.0
  0
SOLID
  5
1BD
330
1B6
100
AcDbEntity
  8
0
 62
    18
100
AcDbTrace
 10
179.750841
 20
738.182584
 30
0.0
 11
186.417507
 21
738.182584
 31
0.0
 12
183.084174
 22
718.182584
 32
0.0
 13
183.084174
 23
718.182584
 33
0.0
  0
MTEXT
  5
1BE
330
1B6
100
AcDbEntity
  8
0
 62
    18
370
    70
100
AcDbMText
 10
152.919009
 20
820.90442
 30
0.0
 40
15.0
 41
0.0
 71
     5
 72
     1
  1
\A1;205
  7
Arial Unicode MS
 11
0.0
 21
1.0
 31
0.0
 73
     1
 44
1.0
  0
POINT
  5
1BF
330
1B6
100
AcDbEntity
  8
Defpoints
 62
     0
100
AcDbPoint
 10
211.584174
 20
923.626255
 30
0.0
  0
POINT
  5
1C0
330
1B6
100
AcDbEntity
  8
Defpoints
 62
     0
100
AcDbPoint
 10
624.675875
 20
718.182584
 30
0.0
  0
POINT
  5
1C1
330
1B6
100
AcDbEntity
  8
Defpoints
 62
     0
100
AcDbPoint
 10
183.084174
 20
718.182584
 30
0.0
  0
ENDBLK
  5
1B8
330
1B6
100
AcDbEntity
  8
0
100
AcDbBlockEnd
  0
BLOCK
  5
1C9
330
1C2
100
AcDbEntity
  8
0
100
AcDbBlockBegin
  2
_U6
 70
     0
 10
0.0
 20
0.0
 30
0.0
  3
_U6
  1

  0
MTEXT
  5
1C3
330
1C2
100
AcDbEntity
  8
1
  6
Continuous
 62
    18
370
    13
100
AcDbMText
 10
182.057621
 20
804.848178
 30
0.0
 40
15.0
 41
0.0
 71
     7
 72
     5
  1
\fArial Unicode MS|b0|i0;\W1.0000;205
  7
Arial Unicode MS
 11
6.123233995736766E-17
 21
1.0
 31
0.0
 73
     2
 44
1.069626
  0
LINE
  5
1C4
330
1C2
100
AcDbEntity
  8
1
 62
    18
370
    13
100
AcDbLine
 10
210.584174
 20
923.626255
 30
0.0
 11
181.084174
 21
923.626255
 31
0.0
  0
LINE
  5
1C5
330
1C2
100
AcDbEntity
  8
1
 62
    18
370
    13
100
AcDbLine
 10
623.675875
 20
718.182584
 30
0.0
 11
181.084174
 21
718.182584
 31
0.0
  0
LINE
  5
1C6
330
1C2
100
AcDbEntity
  8
1
 62
    18
370
    13
100
AcDbLine
 10
183.084174
 20
923.626255
 30
0.0
 11
183.084174
 21
718.182584
 31
0.0
  0
SOLID
  5
1C7
330
1C2
100
AcDbEntity
  8
1
 62
    18
370
    70
100
AcDbTrace
 10
183.084174
 20
923.626255
 30
0.0
 11
185.717224
 21
903.626265
 31
0.0
 12
180.451124
 22
903.626245
 32
0.0
 13
180.451124
 23
903.626245
 33
0.0
  0
SOLID
  5
1C8
330
1C2
100
AcDbEntity
  8
1
 62
    18
370
    70
100
AcDbTrace
 10
183.084174
 20
718.182584
 30
0.0
 11
180.451124
 21
738.182575
 31
0.0
 12
185.717224
 22
738.182594
 32
0.0
 13
185.717224
 23
738.182594
 33
0.0
  0
ENDBLK
  5
1CA
330
1C2
100
AcDbEntity
  8
0
100
AcDbBlockEnd
  0
BLOCK
  5
1CE
330
1CB
100
AcDbEntity
  8
0
100
AcDbBlockBegin
  2
ASSORTED_DRAFT3
 70
     0
 10
0.0
 20
0.0
 30
0.0
  3
ASSORTED_DRAFT3
  1

  0
SOLID
  5
1CC
330
1CB
100
AcDbEntity
  8
0
 62
    18
370
    70
100
AcDbTrace
 10
108.583115
 20
382.79323
 30
0.0
 11
109.46475
 21
377.793233
 31
0.0
 12
107.70148
 22
377.793227
 32
0.0
 13
108.583115
 23
382.79323
 33
0.0
  0
ENDBLK
  5
1CF
330
1CB
100
AcDbEntity
  8
0
100
AcDbBlockEnd
  0
BLOCK
  5
1D3
330
1D0
100
AcDbEntity
  8
0
100
AcDbBlockBegin
  2
ASSORTED_DRAFT4
 70
     0
 10
0.0
 20
0.0
 30
0.0
  3
ASSORTED_DRAFT4
  1

  0
SOLID
  5
1D1
330
1D0
100
AcDbEntity
  8
0
 62
    18
370
    70
100
AcDbTrace
 10
1228.267681
 20
382.79323
 30
0.0
 11
1229.149315
 21
377.793233
 31
0.0
 12
1227.386046
 22
377.793227
 32
0.0
 13
1228.267681
 23
382.79323
 33
0.0
  0
ENDBLK
  5
1D4
330
1D0
100
AcDbEntity
  8
0
100
AcDbBlockEnd
  0
ENDSEC
  0
SECTION
  2
ENTITIES
  0
POINT
  5
6B
102
{ACAD_REACTORS
330
124
102
}
330
1F
100
AcDbEntity
  8
Top$9
  6
Continuous
 62
   162
 60
     1
370
    70
100
AcDbPoint
 10
0.0
 20
185.764473
 30
0.0
  0
POINT
  5
6C
102
{ACAD_REACTORS
330
19D
102
}
330
1F
100
AcDbEntity
  8
Top$9
  6
Continuous
 62
   162
 60
     1
370
    70
100
AcDbPoint
 10
0.0
 20
185.764473
 30
0.0
  0
LINE
  5
6D
102
{ACAD_REACTORS
330
155
102
}
330
1F
100
AcDbEntity
  8
Top$9
  6
Continuous
 62
    18
370
    35
100
AcDbLine
 10
-470.0
 20
-104.235527
 30
0.0
 11
-470.0
 21
315.764473
 31
0.0
  0
LINE
  5
6E
102
{ACAD_REACTORS
330
13D
102
}
330
1F
100
AcDbEntity
  8
Top$9
  6
Continuous
 62
    18
370
    35
100
AcDbLine
 10
460.0
 20
-114.235527
 30
0.0
 11
-460.0
 21
-114.235527
 31
0.0
  0
LINE
  5
6F
102
{ACAD_REACTORS
330
124
330
155
102
}
330
1F
100
AcDbEntity
  8
Top$9
  6
Continuous
 62
    18
370
    35
100
AcDbLine
 10
470.0
 20
315.764473
 30
0.0
 11
470.0
 21
-104.235527
 31
0.0
  0
LINE
  5
70
102
{ACAD_REACTORS
330
16D
102
}
330
1F
100
AcDbEntity
  8
Top$9
  6
Continuous
 62
    18
370
    35
100
AcDbLine
 10
450.0
 20
293.764473
 30
0.0
 11
450.0
 21
-82.235527
 31
0.0
  0
LINE
  5
71
102
{ACAD_REACTORS
330
185
102
}
330
1F
100
AcDbEntity
  8
Top$9
  6
Continuous
 62
    18
370
    35
100
AcDbLine
 10
438.0
 20
-94.235527
 30
0.0
 11
-438.0
 21
-94.235527
 31
0.0
  0
LINE
  5
72
102
{ACAD_REACTORS
330
13D
330
19D
102
}
330
1F
100
AcDbEntity
  8
Top$9
  6
Continuous
 62
    18
370
    35
100
AcDbLine
 10
-460.0
 20
325.764473
 30
0.0
 11
460.0
 21
325.764473
 31
0.0
  0
LINE
  5
73
102
{ACAD_REACTORS
330
185
102
}
330
1F
100
AcDbEntity
  8
Top$9
  6
Continuous
 62
    18
370
    35
100
AcDbLine
 10
-438.0
 20
305.764473
 30
0.0
 11
438.0
 21
305.764473
 31
0.0
  0
LINE
  5
74
102
{ACAD_REACTORS
330
16D
102
}
330
1F
100
AcDbEntity
  8
Top$9
  6
Continuous
 62
    18
370
    35
100
AcDbLine
 10
-450.0
 20
-82.235527
 30
0.0
 11
-450.0
 21
293.764473
 31
0.0
  0
LINE
  5
75
330
1F
100
AcDbEntity
  8
SX$10
  6
Continuous
 62
    18
370
    35
100
AcDbLine
 10
438.0
 20
0.0
 30
105.764473
 11
-438.0
 21
0.0
 31
105.764473
  0
LINE
  5
76
330
1F
100
AcDbEntity
  8
SX$10
  6
Continuous
 62
    18
370
    35
100
AcDbLine
 10
25.0
 20
0.0
 30
54.764473
 11
25.0
 21
0.0
 31
76.764473
  0
LINE
  5
77
330
1F
100
AcDbEntity
  8
SX$10
  6
Continuous
 62
    18
370
    35
100
AcDbLine
 10
-23.5
 20
0.0
 30
53.264473
 11
23.5
 21
0.0
 31
53.264473
  0
LINE
  5
78
330
1F
100
AcDbEntity
  8
SX$10
  6
Continuous
 62
    18
370
    35
100
AcDbLine
 10
-25.0
 20
0.0
 30
76.764473
 11
-25.0
 21
0.0
 31
54.764473
  0
LINE
  5
79
330
1F
100
AcDbEntity
  8
SX$10
  6
Continuous
 62
    18
370
    35
100
AcDbLine
 10
23.5
 20
0.0
 30
78.264473
 11
-23.5
 21
0.0
 31
78.264473
  0
LINE
  5
7A
330
1F
100
AcDbEntity
  8
SX$10
  6
Continuous
 62
    18
370
    35
100
AcDbLine
 10
-438.0
 20
0.0
 30
105.764473
 11
-452.0
 21
0.0
 31
105.764473
  0
LINE
  5
7B
330
1F
100
AcDbEntity
  8
SX$10
  6
Continuous
 62
    18
370
    35
100
AcDbLine
 10
452.0
 20
0.0
 30
105.764473
 11
438.0
 21
0.0
 31
105.764473
  0
LINE
  5
7C
330
1F
100
AcDbEntity
  8
SX$10
  6
Continuous
 62
    18
370
    35
100
AcDbLine
 10
450.0
 20
0.0
 30
-82.235527
 11
450.0
 21
0.0
 31
103.764473
  0
LINE
  5
7D
330
1F
100
AcDbEntity
  8
SX$10
  6
Continuous
 62
    18
370
    35
100
AcDbLine
 10
452.0
 20
0.0
 30
105.764473
 11
469.5
 21
0.0
 31
105.764473
  0
LINE
  5
7E
330
1F
100
AcDbEntity
  8
SX$10
  6
Continuous
 62
    18
370
    35
100
AcDbLine
 10
470.0
 20
0.0
 30
105.264473
 11
470.0
 21
0.0
 31
104.764473
  0
LINE
  5
7F
330
1F
100
AcDbEntity
  8
SX$10
  6
Continuous
 62
    18
370
    35
100
AcDbLine
 10
470.0
 20
0.0
 30
104.764473
 11
452.0
 21
0.0
 31
104.764473
  0
LINE
  5
80
330
1F
100
AcDbEntity
  8
SX$10
  6
Continuous
 62
    18
370
    35
100
AcDbLine
 10
451.0
 20
0.0
 30
103.764473
 11
451.0
 21
0.0
 31
-82.235527
  0
LINE
  5
81
330
1F
100
AcDbEntity
  8
SX$10
  6
Continuous
 62
    18
370
    35
100
AcDbLine
 10
45.0
 20
0.0
 30
-102.947637
 11
45.0
 21
0.0
 31
-101.909823
  0
LINE
  5
82
330
1F
100
AcDbEntity
  8
SX$10
  6
Continuous
 62
    18
370
    35
100
AcDbLine
 10
-45.0
 20
0.0
 30
-101.909823
 11
-45.0
 21
0.0
 31
-102.947637
  0
LINE
  5
83
330
1F
100
AcDbEntity
  8
SX$10
  6
Continuous
 62
    18
370
    35
100
AcDbLine
 10
-451.0
 20
0.0
 30
-82.235527
 11
-451.0
 21
0.0
 31
103.764473
  0
LINE
  5
84
330
1F
100
AcDbEntity
  8
SX$10
  6
Continuous
 62
    18
370
    35
100
AcDbLine
 10
-452.0
 20
0.0
 30
104.764473
 11
-470.0
 21
0.0
 31
104.764473
  0
LINE
  5
85
330
1F
100
AcDbEntity
  8
SX$10
  6
Continuous
 62
    18
370
    35
100
AcDbLine
 10
-470.0
 20
0.0
 30
104.764473
 11
-470.0
 21
0.0
 31
105.264473
  0
LINE
  5
86
102
{ACAD_REACTORS
330
1B5
102
}
330
1F
100
AcDbEntity
  8
SX$10
  6
Continuous
 62
    18
370
    35
100
AcDbLine
 10
-469.5
 20
0.0
 30
105.764473
 11
-452.0
 21
0.0
 31
105.764473
  0
LINE
  5
87
330
1F
100
AcDbEntity
  8
SX$10
  6
Continuous
 62
    18
370
    35
100
AcDbLine
 10
-450.0
 20
0.0
 30
103.764473
 11
-450.0
 21
0.0
 31
-82.235532
  0
LINE
  5
88
330
1F
100
AcDbEntity
  8
SX$10
  6
Continuous
 62
   252
 60
     1
370
    35
100
AcDbLine
 10
45.0
 20
0.0
 30
-102.947637
 11
45.0
 21
0.0
 31
-101.909823
  0
LINE
  5
89
330
1F
100
AcDbEntity
  8
SX$10
  6
Continuous
 62
   252
 60
     1
370
    35
100
AcDbLine
 10
451.0
 20
0.0
 30
103.764473
 11
451.0
 21
0.0
 31
-82.235527
  0
LINE
  5
8A
330
1F
100
AcDbEntity
  8
SX$10
  6
Continuous
 62
   252
 60
     1
370
    35
100
AcDbLine
 10
470.0
 20
0.0
 30
104.764473
 11
452.0
 21
0.0
 31
104.764473
  0
LINE
  5
8B
330
1F
100
AcDbEntity
  8
SX$10
  6
Continuous
 62
   252
 60
     1
370
    35
100
AcDbLine
 10
470.0
 20
0.0
 30
105.264473
 11
470.0
 21
0.0
 31
104.764473
  0
LINE
  5
8C
330
1F
100
AcDbEntity
  8
SX$10
  6
Continuous
 62
   252
 60
     1
370
    35
100
AcDbLine
 10
452.0
 20
0.0
 30
105.764473
 11
469.5
 21
0.0
 31
105.764473
  0
LINE
  5
8D
330
1F
100
AcDbEntity
  8
SX$10
  6
Continuous
 62
   252
 60
     1
370
    35
100
AcDbLine
 10
450.0
 20
0.0
 30
-82.235527
 11
450.0
 21
0.0
 31
103.764473
  0
LINE
  5
8E
330
1F
100
AcDbEntity
  8
SX$10
  6
Continuous
 62
   252
 60
     1
370
    35
100
AcDbLine
 10
-450.0
 20
0.0
 30
103.764473
 11
-450.0
 21
0.0
 31
-82.235532
  0
LINE
  5
8F
330
1F
100
AcDbEntity
  8
SX$10
  6
Continuous
 62
   252
 60
     1
370
    35
100
AcDbLine
 10
-469.5
 20
0.0
 30
105.764473
 11
-452.0
 21
0.0
 31
105.764473
  0
LINE
  5
90
330
1F
100
AcDbEntity
  8
SX$10
  6
Continuous
 62
   252
 60
     1
370
    35
100
AcDbLine
 10
-470.0
 20
0.0
 30
104.764473
 11
-470.0
 21
0.0
 31
105.264473
  0
LINE
  5
91
330
1F
100
AcDbEntity
  8
SX$10
  6
Continuous
 62
   252
 60
     1
370
    35
100
AcDbLine
 10
-452.0
 20
0.0
 30
104.764473
 11
-470.0
 21
0.0
 31
104.764473
  0
LINE
  5
92
330
1F
100
AcDbEntity
  8
SX$10
  6
Continuous
 62
   252
 60
     1
370
    35
100
AcDbLine
 10
-451.0
 20
0.0
 30
-82.235527
 11
-451.0
 21
0.0
 31
103.764473
  0
LINE
  5
93
330
1F
100
AcDbEntity
  8
SX$10
  6
Continuous
 62
   252
 60
     1
370
    35
100
AcDbLine
 10
-45.0
 20
0.0
 30
-101.909823
 11
-45.0
 21
0.0
 31
-102.947637
  0
ARC
  5
94
330
1F
100
AcDbEntity
  8
Top$9
  6
Continuous
 62
    18
370
    35
100
AcDbCircle
 10
-460.0
 20
-104.235527
 30
0.0
 40
10.00000000000001
210
0.0
220
0.0
230
-1.0
100
AcDbArc
 50
180.0
 51
270.0
  0
ARC
  5
95
330
1F
100
AcDbEntity
  8
Top$9
  6
Continuous
 62
    18
370
    35
100
AcDbCircle
 10
460.0
 20
-104.235527
 30
0.0
 40
10.00000000000001
210
0.0
220
0.0
230
-1.0
100
AcDbArc
 50
270.0
 51
0.0
  0
ARC
  5
96
330
1F
100
AcDbEntity
  8
Top$9
  6
Continuous
 62
    18
370
    35
100
AcDbCircle
 10
-438.0
 20
-82.235527
 30
0.0
 40
12.00000000000001
210
0.0
220
0.0
230
-1.0
100
AcDbArc
 50
180.0
 51
270.0
  0
ARC
  5
97
330
1F
100
AcDbEntity
  8
Top$9
  6
Continuous
 62
    18
370
    35
100
AcDbCircle
 10
-460.0
 20
315.764473
 30
0.0
 40
10.00000000000001
210
0.0
220
0.0
230
-1.0
100
AcDbArc
 50
90.0
 51
180.0
  0
ARC
  5
98
330
1F
100
AcDbEntity
  8
Top$9
  6
Continuous
 62
    18
370
    35
100
AcDbCircle
 10
460.0
 20
315.764473
 30
0.0
 40
10.00000000000001
210
0.0
220
0.0
230
-1.0
100
AcDbArc
 50
360.0
 51
90.0
  0
ARC
  5
99
330
1F
100
AcDbEntity
  8
Top$9
  6
Continuous
 62
    18
370
    35
100
AcDbCircle
 10
438.0
 20
293.764473
 30
0.0
 40
12.00000000000001
210
0.0
220
0.0
230
-1.0
100
AcDbArc
 50
360.0
 51
90.0
  0
ARC
  5
9A
330
1F
100
AcDbEntity
  8
Top$9
  6
Continuous
 62
    18
370
    35
100
AcDbCircle
 10
-438.0
 20
293.764473
 30
0.0
 40
12.00000000000001
210
0.0
220
0.0
230
-1.0
100
AcDbArc
 50
90.0
 51
180.0
  0
ARC
  5
9B
330
1F
100
AcDbEntity
  8
Top$9
  6
Continuous
 62
    18
370
    35
100
AcDbCircle
 10
438.0
 20
-82.235527
 30
0.0
 40
12.00000000000001
210
0.0
220
0.0
230
-1.0
100
AcDbArc
 50
270.0
 51
0.0
  0
ARC
  5
9C
330
1F
100
AcDbEntity
  8
SX$10
  6
Continuous
 62
    18
370
    35
100
AcDbCircle
 10
23.5
 20
76.764473
 30
0.0
 40
1.500000000000001
210
0.0
220
-1.0
230
0.0
100
AcDbArc
 50
0.0
 51
90.0
  0
ARC
  5
9D
330
1F
100
AcDbEntity
  8
SX$10
  6
Continuous
 62
    18
370
    35
100
AcDbCircle
 10
23.5
 20
54.764473
 30
0.0
 40
1.500000000000001
210
0.0
220
-1.0
230
0.0
100
AcDbArc
 50
270.0
 51
0.0
  0
ARC
  5
9E
330
1F
100
AcDbEntity
  8
SX$10
  6
Continuous
 62
    18
370
    35
100
AcDbCircle
 10
-23.5
 20
54.764473
 30
0.0
 40
1.500000000000001
210
0.0
220
-1.0
230
0.0
100
AcDbArc
 50
180.0
 51
270.0
  0
ARC
  5
9F
330
1F
100
AcDbEntity
  8
SX$10
  6
Continuous
 62
    18
370
    35
100
AcDbCircle
 10
-23.5
 20
76.764473
 30
0.0
 40
1.500000000000001
210
0.0
220
-1.0
230
0.0
100
AcDbArc
 50
90.0
 51
180.0
  0
ARC
  5
A0
330
1F
100
AcDbEntity
  8
SX$10
  6
Continuous
 62
    18
370
    35
100
AcDbCircle
 10
438.0
 20
-82.235527
 30
0.0
 40
12.00000000000001
210
0.0
220
-1.0
230
0.0
100
AcDbArc
 50
270.0
 51
360.0
  0
ARC
  5
A1
330
1F
100
AcDbEntity
  8
SX$10
  6
Continuous
 62
    18
370
    35
100
AcDbCircle
 10
-452.0
 20
103.764473
 30
0.0
 40
2.000000000000002
210
0.0
220
1.0
230
0.0
100
AcDbArc
 50
0.0
 51
90.0
  0
ARC
  5
A2
330
1F
100
AcDbEntity
  8
SX$10
  6
Continuous
 62
    18
370
    35
100
AcDbCircle
 10
-469.5
 20
105.264473
 30
0.0
 40
0.5000000000000004
210
0.0
220
1.0
230
0.0
100
AcDbArc
 50
90.0
 51
180.0
  0
ARC
  5
A3
330
1F
100
AcDbEntity
  8
SX$10
  6
Continuous
 62
    18
370
    35
100
AcDbCircle
 10
452.0
 20
103.764473
 30
0.0
 40
1.000000000000001
210
0.0
220
-1.0
230
0.0
100
AcDbArc
 50
90.0
 51
180.0
  0
ARC
  5
A4
330
1F
100
AcDbEntity
  8
SX$10
  6
Continuous
 62
    18
370
    35
100
AcDbCircle
 10
-438.0
 20
-82.235527
 30
0.0
 40
13.00000000000001
210
0.0
220
1.0
230
0.0
100
AcDbArc
 50
180.0
 51
270.0
  0
ARC
  5
A5
330
1F
100
AcDbEntity
  8
SX$10
  6
Continuous
 62
    18
370
    35
100
AcDbCircle
 10
438.0
 20
-82.235527
 30
0.0
 40
13.00000000000001
210
0.0
220
1.0
230
0.0
100
AcDbArc
 50
270.0
 51
0.0
  0
ARC
  5
A6
330
1F
100
AcDbEntity
  8
SX$10
  6
Continuous
 62
    18
370
    35
100
AcDbCircle
 10
469.5
 20
105.264473
 30
0.0
 40
0.5000000000000004
210
0.0
220
1.0
230
0.0
100
AcDbArc
 50
0.0
 51
90.0
  0
ARC
  5
A7
330
1F
100
AcDbEntity
  8
SX$10
  6
Continuous
 62
    18
370
    35
100
AcDbCircle
 10
452.0
 20
103.764473
 30
0.0
 40
2.000000000000002
210
0.0
220
1.0
230
0.0
100
AcDbArc
 50
90.0
 51
180.0
  0
ARC
  5
A8
330
1F
100
AcDbEntity
  8
SX$10
  6
Continuous
 62
    18
370
    35
100
AcDbCircle
 10
-438.0
 20
-82.235527
 30
0.0
 40
12.00000000000001
210
0.0
220
-1.0
230
0.0
100
AcDbArc
 50
180.000024
 51
270.0
  0
ARC
  5
A9
330
1F
100
AcDbEntity
  8
SX$10
  6
Continuous
 62
    18
370
    35
100
AcDbCircle
 10
-452.0
 20
103.764473
 30
0.0
 40
1.000000000000001
210
0.0
220
-1.0
230
0.0
100
AcDbArc
 50
0.0
 51
90.0
  0
ARC
  5
AA
330
1F
100
AcDbEntity
  8
SX$10
  6
Continuous
 62
   252
 60
     1
370
    35
100
AcDbCircle
 10
-438.0
 20
-82.235527
 30
0.0
 40
13.00000000000001
210
0.0
220
1.0
230
0.0
100
AcDbArc
 50
180.0
 51
270.0
  0
ARC
  5
AB
330
1F
100
AcDbEntity
  8
SX$10
  6
Continuous
 62
   252
 60
     1
370
    35
100
AcDbCircle
 10
452.0
 20
103.764473
 30
0.0
 40
1.000000000000001
210
0.0
220
-1.0
230
0.0
100
AcDbArc
 50
90.0
 51
180.0
  0
ARC
  5
AC
330
1F
100
AcDbEntity
  8
SX$10
  6
Continuous
 62
   252
 60
     1
370
    35
100
AcDbCircle
 10
-469.5
 20
105.264473
 30
0.0
 40
0.5000000000000004
210
0.0
220
1.0
230
0.0
100
AcDbArc
 50
90.0
 51
180.0
  0
ARC
  5
AD
330
1F
100
AcDbEntity
  8
SX$10
  6
Continuous
 62
   252
 60
     1
370
    35
100
AcDbCircle
 10
-452.0
 20
103.764473
 30
0.0
 40
2.000000000000002
210
0.0
220
1.0
230
0.0
100
AcDbArc
 50
0.0
 51
90.0
  0
ARC
  5
AE
330
1F
100
AcDbEntity
  8
SX$10
  6
Continuous
 62
   252
 60
     1
370
    35
100
AcDbCircle
 10
438.0
 20
-82.235527
 30
0.0
 40
12.00000000000001
210
0.0
220
-1.0
230
0.0
100
AcDbArc
 50
270.0
 51
360.0
  0
ARC
  5
AF
330
1F
100
AcDbEntity
  8
SX$10
  6
Continuous
 62
   252
 60
     1
370
    35
100
AcDbCircle
 10
-438.0
 20
-82.235527
 30
0.0
 40
12.00000000000001
210
0.0
220
-1.0
230
0.0
100
AcDbArc
 50
180.000024
 51
270.0
  0
ARC
  5
B0
330
1F
100
AcDbEntity
  8
SX$10
  6
Continuous
 62
   252
 60
     1
370
    35
100
AcDbCircle
 10
452.0
 20
103.764473
 30
0.0
 40
2.000000000000002
210
0.0
220
1.0
230
0.0
100
AcDbArc
 50
90.0
 51
180.0
  0
ARC
  5
B1
330
1F
100
AcDbEntity
  8
SX$10
  6
Continuous
 62
   252
 60
     1
370
    35
100
AcDbCircle
 10
469.5
 20
105.264473
 30
0.0
 40
0.5000000000000004
210
0.0
220
1.0
230
0.0
100
AcDbArc
 50
0.0
 51
90.0
  0
ARC
  5
B2
330
1F
100
AcDbEntity
  8
SX$10
  6
Continuous
 62
   252
 60
     1
370
    35
100
AcDbCircle
 10
-452.0
 20
103.764473
 30
0.0
 40
1.000000000000001
210
0.0
220
-1.0
230
0.0
100
AcDbArc
 50
0.0
 51
90.0
  0
ARC
  5
B3
330
1F
100
AcDbEntity
  8
SX$10
  6
Continuous
 62
   252
 60
     1
370
    35
100
AcDbCircle
 10
438.0
 20
-82.235527
 30
0.0
 40
13.00000000000001
210
0.0
220
1.0
230
0.0
100
AcDbArc
 50
270.0
 51
0.0
  0
SPLINE
  5
B4
330
1F
100
AcDbEntity
  8
Top$9
  6
Continuous
 62
    18
370
    35
100
AcDbSpline
210
0.0
220
0.0
230
1.0
 70
     8
 71
     3
 72
   121
 73
   117
 74
     0
 42
0.000000001
 43
0.0000000001
 40
0.0
 40
0.0
 40
0.0
 40
0.0
 40
0.0156249999999992
 40
0.0312499999999983
 40
0.0468749999999975
 40
0.0624999999999966
 40
0.0781249999999958
 40
0.0937499999999949
 40
0.0937499999999949
 40
0.1015624999999945
 40
0.105468749999994
 40
0.105468749999994
 40
0.1093749999999935
 40
0.1093749999999935
 40
0.124999999999992
 40
0.1406249999999905
 40
0.156249999999989
 40
0.1718749999999875
 40
0.187499999999986
 40
0.187499999999986
 40
0.2031249999999845
 40
0.2031249999999845
 40
0.2109374999999837
 40
0.2148437499999835
 40
0.2148437499999835
 40
0.2187499999999833
 40
0.2187499999999833
 40
0.234374999999984
 40
0.2499999999999845
 40
0.2656249999999852
 40
0.2656249999999852
 40
0.2812499999999859
 40
0.2812499999999859
 40
0.2968749999999866
 40
0.3124999999999873
 40
0.3124999999999873
 40
0.3203124999999878
 40
0.3203124999999878
 40
0.3242187499999881
 40
0.3242187499999881
 40
0.3281249999999883
 40
0.3437499999999889
 40
0.3593749999999896
 40
0.3749999999999902
 40
0.3749999999999902
 40
0.3906249999999909
 40
0.4062499999999916
 40
0.4218749999999923
 40
0.4218749999999923
 40
0.4296874999999927
 40
0.4296874999999927
 40
0.437499999999993
 40
0.437499999999993
 40
0.4531249999999937
 40
0.4687499999999943
 40
0.4843749999999949
 40
0.4999999999999957
 40
0.4999999999999957
 40
0.5156249999999963
 40
0.5312499999999971
 40
0.5312499999999971
 40
0.5351562499999972
 40
0.5351562499999972
 40
0.5390624999999973
 40
0.5390624999999973
 40
0.5468749999999977
 40
0.5468749999999977
 40
0.5624999999999981
 40
0.5781249999999987
 40
0.5937499999999991
 40
0.6093749999999997
 40
0.6250000000000001
 40
0.6250000000000001
 40
0.6406250000000006
 40
0.6406250000000006
 40
0.6445312500000007
 40
0.6445312500000007
 40
0.6484375000000009
 40
0.656250000000001
 40
0.656250000000001
 40
0.6718750000000014
 40
0.6875000000000019
 40
0.7031250000000024
 40
0.7187500000000029
 40
0.7187500000000029
 40
0.7343750000000034
 40
0.7343750000000034
 40
0.7500000000000039
 40
0.7500000000000039
 40
0.7539062500000041
 40
0.7539062500000041
 40
0.7578125000000043
 40
0.7656250000000042
 40
0.7656250000000042
 40
0.781250000000004
 40
0.7968750000000037
 40
0.8125000000000033
 40
0.8281250000000031
 40
0.8437500000000028
 40
0.8437500000000028
 40
0.8593750000000026
 40
0.8593750000000026
 40
0.8750000000000022
 40
0.8906250000000019
 40
0.9062500000000017
 40
0.9218750000000013
 40
0.937500000000001
 40
0.9531250000000008
 40
0.9531250000000008
 40
0.9609375000000009
 40
0.9648437500000007
 40
0.9648437500000007
 40
0.9687500000000004
 40
0.9687500000000004
 40
0.9843750000000002
 40
1.0
 40
1.0
 40
1.0
 40
1.0
 10
45.00000000000023
 20
185.7644727892105
 30
0.0
 10
45.00000000000024
 20
185.0213394911775
 30
0.0
 10
44.96320906316366
 20
183.5413341460327
 30
0.0
 10
44.79998790106205
 20
181.3397150570054
 30
0.0
 10
44.53022946341508
 20
179.1562323203975
 30
0.0
 10
44.15464556802186
 20
176.9907663125848
 30
0.0
 10
43.67318834643029
 20
174.843325971602
 30
0.0
 10
43.28109557304266
 20
173.4238079819376
 30
0.0
 10
42.95995461068351
 20
172.3637783922733
 30
0.0
 10
42.79261312247671
 20
171.8349163582424
 30
0.0
 10
42.61501019604104
 20
171.3078012652503
 30
0.0
 10
42.49431411139062
 20
170.956781755061
 30
0.0
 10
42.43278490583189
 20
170.7813752844033
 30
0.0
 10
42.12020393166805
 20
169.9076272011079
 30
0.0
 10
41.5875301352289
 20
168.5276638304939
 30
0.0
 10
40.69286399767522
 20
166.5107221321159
 30
0.0
 10
39.70378355782228
 20
164.5460974762707
 30
0.0
 10
38.62083479939474
 20
162.6334881835187
 30
0.0
 10
37.83620597582103
 20
161.3931390496715
 30
0.0
 10
37.01997741599676
 20
160.1703003468783
 30
0.0
 10
36.59606364039414
 20
159.5676359978337
 30
0.0
 10
35.93611515548834
 20
158.6769819402421
 30
0.0
 10
35.60011862852057
 20
158.2349920948102
 30
0.0
 10
35.25499105108641
 20
157.798062146835
 30
0.0
 10
35.02286409349647
 20
157.5079070226735
 30
0.0
 10
34.90602396891412
 20
157.3637004520407
 30
0.0
 10
34.31796816626338
 20
156.647001752089
 30
0.0
 10
33.3524118072659
 20
155.5279927707652
 30
0.0
 10
31.83150755885877
 20
153.9309982086673
 30
0.0
 10
30.76977515367527
 20
152.9200255674655
 30
0.0
 10
29.68426184136588
 20
151.9357664107077
 30
0.0
 10
29.12961466955283
 20
151.4569935987702
 30
0.0
 10
27.99648610788676
 20
150.5262216292844
 30
0.0
 10
26.83952329973793
 20
149.6222233941024
 30
0.0
 10
25.6344422397572
 20
148.7722786406199
 30
0.0
 10
24.71228208903441
 20
148.1554329427904
 30
0.0
 10
24.4018356983609
 20
147.9532548132722
 30
0.0
 10
23.93152486234709
 20
147.6552014063659
 30
0.0
 10
23.77389719022341
 20
147.5566691397907
 30
0.0
 10
23.45792196664983
 20
147.3618642276753
 30
0.0
 10
22.66577104797284
 20
146.8802353062312
 30
0.0
 10
21.22012118551515
 20
146.061418925992
 30
0.0
 10
19.2511731106203
 20
145.0704162504222
 30
0.0
 10
17.91123919551459
 20
144.4761663271487
 30
0.0
 10
16.55770903871478
 20
143.9149923693375
 30
0.0
 10
15.19058251129248
 20
143.386894683475
 30
0.0
 10
13.09897626878283
 20
142.6942875308048
 30
0.0
 10
11.67701178250732
 20
142.2995971374229
 30
0.0
 10
10.60001879684948
 20
142.0291711850717
 30
0.0
 10
10.23926319826981
 20
141.943295679725
 30
0.0
 10
9.51421786887354
 20
141.7801831797608
 30
0.0
 10
9.15144963340653
 20
141.7032883742932
 30
0.0
 10
8.062416775591805
 20
141.4864257964949
 30
0.0
 10
6.608432186365325
 20
141.2341157417189
 30
0.0
 10
4.421734886564969
 20
140.9642361677034
 30
0.0
 10
2.229375876602371
 20
140.8018276236947
 30
0.0
 10
0.7640404940091261
 20
140.7649791343335
 30
0.0
 10
-0.703183859283992
 20
140.7639870192565
 30
0.0
 10
-2.172297184004578
 20
140.7988512877392
 30
0.0
 10
-3.645231041064335
 20
140.9062370220197
 30
0.0
 10
-4.567031077274562
 20
140.9964424412918
 30
0.0
 10
-4.75145194048113
 20
141.0156386976944
 30
0.0
 10
-5.120416092415703
 20
141.0563551020023
 30
0.0
 10
-5.305054976864104
 20
141.0778882396096
 30
0.0
 10
-5.857694092023856
 20
141.145808443569
 30
0.0
 10
-6.224813005761312
 20
141.1955546341517
 30
0.0
 10
-7.322291961580254
 20
141.3580420577781
 30
0.0
 10
-8.775261530516788
 20
141.6100049583347
 30
0.0
 10
-10.92422306309209
 20
142.092131143576
 30
0.0
 10
-13.04297750029344
 20
142.6774627595302
 30
0.0
 10
-15.13159177744268
 20
143.3657707612176
 30
0.0
 10
-16.50380850820959
 20
143.893632774488
 30
0.0
 10
-17.86580538401113
 20
144.4564113871697
 30
0.0
 10
-18.54169404322846
 20
144.7552584814437
 30
0.0
 10
-19.38004131580051
 20
145.1510713266863
 30
0.0
 10
-19.54738841663139
 20
145.2313489989175
 30
0.0
 10
-19.88141272893603
 20
145.3941378139892
 30
0.0
 10
-20.38040862300316
 20
145.6411666229834
 30
0.0
 10
-20.87332110942805
 20
145.8966787770647
 30
0.0
 10
-21.85112155965953
 20
146.4188933588121
 30
0.0
 10
-23.13346682272434
 20
147.145006182175
 30
0.0
 10
-24.99382631108952
 20
148.3222506633174
 30
0.0
 10
-26.79156148961049
 20
149.5868253982453
 30
0.0
 10
-27.94835737852454
 20
150.4880178636204
 30
0.0
 10
-29.08418416593529
 20
151.4184514231646
 30
0.0
 10
-29.64161321298162
 20
151.8982884467336
 30
0.0
 10
-30.73522618954944
 20
152.8875881000575
 30
0.0
 10
-31.27141058296823
 20
153.3970501224484
 30
0.0
 10
-31.92808798290409
 20
154.0527770622865
 30
0.0
 10
-32.05881120868178
 20
154.1849371654634
 30
0.0
 10
-32.31820829006752
 20
154.4504526186029
 30
0.0
 10
-32.70444533060815
 20
154.8507292158171
 30
0.0
 10
-33.08215822132752
 20
155.2569799071611
 30
0.0
 10
-33.82633458150424
 20
156.0773653703807
 30
0.0
 10
-34.78858527364655
 20
157.1922270606234
 30
0.0
 10
-36.14333858801482
 20
158.9266300529081
 30
0.0
 10
-37.41013959028624
 20
160.7226732473659
 30
0.0
 10
-38.58902672914206
 20
162.5803290825468
 30
0.0
 10
-39.31594719764657
 20
163.8601184045476
 30
0.0
 10
-40.01295028574889
 20
165.1608746935569
 30
0.0
 10
-40.3465039897946
 20
165.8217578731775
 30
0.0
 10
-40.98300367767393
 20
167.1648579551221
 30
0.0
 10
-41.58357235688432
 20
168.5180533209437
 30
0.0
 10
-42.37892003228363
 20
170.5774876924796
 30
0.0
 10
-43.07022461853953
 20
172.6661546407475
 30
0.0
 10
-43.65818175483464
 20
174.7838601416906
 30
0.0
 10
-44.14274467994149
 20
176.9306180622463
 30
0.0
 10
-44.39632986466333
 20
178.3813064619226
 30
0.0
 10
-44.56008155817417
 20
179.4767510916518
 30
0.0
 10
-44.6353449307023
 20
180.0263313782703
 30
0.0
 10
-44.70058713617681
 20
180.5787273500025
 30
0.0
 10
-44.74184152653176
 20
180.9476208199343
 30
0.0
 10
-44.76135389337956
 20
181.1324438496402
 30
0.0
 10
-44.85312795713848
 20
182.0565321334108
 30
0.0
 10
-44.96320618275723
 20
183.5370081906162
 30
0.0
 10
-44.99999999999979
 20
185.0213397253664
 30
0.0
 10
-44.99999999999978
 20
185.7644727892106
 30
0.0
  0
SPLINE
  5
B5
330
1F
100
AcDbEntity
  8
Top$9
  6
Continuous
 62
    18
370
    35
100
AcDbSpline
210
0.0
220
0.0
230
1.0
 70
     8
 71
     3
 72
   121
 73
   117
 74
     0
 42
0.000000001
 43
0.0000000001
 40
0.0
 40
0.0
 40
0.0
 40
0.0
 40
0.0156250000000007
 40
0.0312500000000013
 40
0.046875000000002
 40
0.0625000000000027
 40
0.0781250000000034
 40
0.093750000000004
 40
0.093750000000004
 40
0.1015625000000044
 40
0.1054687500000046
 40
0.1054687500000046
 40
0.1093750000000048
 40
0.1093750000000048
 40
0.1250000000000039
 40
0.140625000000003
 40
0.1562500000000021
 40
0.1718750000000012
 40
0.1875000000000004
 40
0.1875000000000004
 40
0.2031249999999995
 40
0.2031249999999995
 40
0.210937499999999
 40
0.2148437499999988
 40
0.2148437499999988
 40
0.2187499999999986
 40
0.2187499999999986
 40
0.2343749999999979
 40
0.2499999999999972
 40
0.2656249999999965
 40
0.2656249999999965
 40
0.2812499999999958
 40
0.2812499999999958
 40
0.2968749999999951
 40
0.3124999999999943
 40
0.3124999999999943
 40
0.3203124999999939
 40
0.3203124999999939
 40
0.3242187499999937
 40
0.3242187499999937
 40
0.3281249999999934
 40
0.3437499999999933
 40
0.3593749999999931
 40
0.374999999999993
 40
0.374999999999993
 40
0.3906249999999928
 40
0.4062499999999926
 40
0.4218749999999925
 40
0.4218749999999925
 40
0.4296874999999923
 40
0.4296874999999923
 40
0.4374999999999922
 40
0.4374999999999922
 40
0.4531249999999921
 40
0.4687499999999918
 40
0.4843749999999916
 40
0.4999999999999914
 40
0.4999999999999914
 40
0.5156249999999912
 40
0.531249999999991
 40
0.531249999999991
 40
0.535156249999991
 40
0.535156249999991
 40
0.5390624999999909
 40
0.5390624999999909
 40
0.5468749999999908
 40
0.5468749999999908
 40
0.5624999999999905
 40
0.5781249999999901
 40
0.5937499999999898
 40
0.6093749999999895
 40
0.6249999999999892
 40
0.6249999999999892
 40
0.6406249999999891
 40
0.6406249999999891
 40
0.6445312499999891
 40
0.6445312499999891
 40
0.6484374999999892
 40
0.6562499999999896
 40
0.6562499999999896
 40
0.6718749999999901
 40
0.6874999999999907
 40
0.7031249999999912
 40
0.7187499999999918
 40
0.7187499999999918
 40
0.7343749999999923
 40
0.7343749999999923
 40
0.7499999999999929
 40
0.7499999999999929
 40
0.7539062499999932
 40
0.7539062499999932
 40
0.7578124999999934
 40
0.7656249999999937
 40
0.7656249999999937
 40
0.7812499999999946
 40
0.7968749999999954
 40
0.8124999999999963
 40
0.8281249999999972
 40
0.8437499999999981
 40
0.8437499999999981
 40
0.859374999999999
 40
0.859374999999999
 40
0.8749999999999999
 40
0.8906250000000009
 40
0.9062500000000018
 40
0.9218750000000027
 40
0.9375000000000036
 40
0.9531250000000044
 40
0.9531250000000044
 40
0.9609375000000046
 40
0.9648437500000042
 40
0.9648437500000042
 40
0.968750000000004
 40
0.968750000000004
 40
0.984375000000002
 40
1.0
 40
1.0
 40
1.0
 40
1.0
 10
-44.99999999999978
 20
185.7644727892105
 30
0.0
 10
-44.99999999999979
 20
186.5076245261864
 30
0.0
 10
-44.96320729169518
 20
187.9876577339384
 30
0.0
 10
-44.79998131959202
 20
190.1892998959046
 30
0.0
 10
-44.53021772484695
 20
192.3727930754145
 30
0.0
 10
-44.15462932336191
 20
194.5382609731192
 30
0.0
 10
-43.6731689179667
 20
196.6856968719556
 30
0.0
 10
-43.28107542562778
 20
198.1052079886413
 30
0.0
 10
-42.95993479603057
 20
199.1652306459935
 30
0.0
 10
-42.79259369516022
 20
199.6940887628404
 30
0.0
 10
-42.61499158800943
 20
200.2211991437211
 30
0.0
 10
-42.49429615985135
 20
200.5722153185145
 30
0.0
 10
-42.43276724707552
 20
200.7476202885655
 30
0.0
 10
-42.12018740609854
 20
201.6213620360333
 30
0.0
 10
-41.58751656952361
 20
203.001313456578
 30
0.0
 10
-40.69286120733231
 20
205.0182290930971
 30
0.0
 10
-39.70379633113789
 20
206.9828229332843
 30
0.0
 10
-38.62086863210177
 20
208.8953996169995
 30
0.0
 10
-37.83625732812187
 20
210.1357263553488
 30
0.0
 10
-37.0200483022738
 20
211.35854227185
 30
0.0
 10
-36.59614531664123
 20
211.9611950221285
 30
0.0
 10
-35.9362144755631
 20
212.8518317618505
 30
0.0
 10
-35.60022713577106
 20
213.2938129661153
 30
0.0
 10
-35.25510928667461
 20
213.7307343524448
 30
0.0
 10
-35.02298893487259
 20
214.020883791077
 30
0.0
 10
-34.90615053701129
 20
214.1650895474533
 30
0.0
 10
-34.31810742734302
 20
214.8817793882498
 30
0.0
 10
-33.35257190155837
 20
216.0007753734531
 30
0.0
 10
-31.83170022382833
 20
217.5977539416306
 30
0.0
 10
-30.76999045901507
 20
218.6087180553281
 30
0.0
 10
-29.68450038999851
 20
219.5929696009954
 30
0.0
 10
-29.12986523939288
 20
220.0717389893254
 30
0.0
 10
-27.99676078984792
 20
221.0025054849608
 30
0.0
 10
-26.83982206480076
 20
221.90649970602
 30
0.0
 10
-25.63476324001032
 20
222.7564443316625
 30
0.0
 10
-24.71261858455713
 20
223.3732914882397
 30
0.0
 10
-24.40217716418948
 20
223.5754703605254
 30
0.0
 10
-23.93187345161786
 20
223.8735252573362
 30
0.0
 10
-23.77424660083733
 20
223.9720590331137
 30
0.0
 10
-23.45826994563287
 20
224.1668687975399
 30
0.0
 10
-22.66611530779343
 20
224.6485097896483
 30
0.0
 10
-21.22045746830791
 20
225.4673473530153
 30
0.0
 10
-19.25149657001748
 20
226.458376727507
 30
0.0
 10
-17.91155344597324
 20
227.0526430509173
 30
0.0
 10
-16.5580143790512
 20
227.6138325242266
 30
0.0
 10
-15.19087926364271
 20
228.1419448534664
 30
0.0
 10
-13.09925964763857
 20
228.834572189004
 30
0.0
 10
-11.67728510156528
 20
229.2292751273487
 30
0.0
 10
-10.60028390757704
 20
229.4997101669581
 30
0.0
 10
-10.23952929363346
 20
229.5855877853156
 30
0.0
 10
-9.514470348764693
 20
229.7487078472347
 30
0.0
 10
-9.15168602765434
 20
229.8256082034532
 30
0.0
 10
-8.062619687558938
 20
230.0424832270992
 30
0.0
 10
-6.608592002257854
 20
230.2948071793264
 30
0.0
 10
-4.421834671769412
 20
230.5647005184532
 30
0.0
 10
-2.229420307949824
 20
230.7271166170959
 30
0.0
 10
-0.7640512426350266
 20
230.763966522363
 30
0.0
 10
0.7032051022108585
 20
230.7649584879852
 30
0.0
 10
2.172348725120364
 20
230.7300925065413
 30
0.0
 10
3.645309554906901
 20
230.6227023886866
 30
0.0
 10
4.56712541030338
 20
230.5324935269087
 30
0.0
 10
4.751549385332225
 20
230.5132965468385
 30
0.0
 10
5.120519656578627
 20
230.4725786280748
 30
0.0
 10
5.305163112357431
 20
230.4510445262397
 30
0.0
 10
5.857820031613202
 20
230.3831207013417
 30
0.0
 10
6.224950303109184
 20
230.3333718606902
 30
0.0
 10
7.322461823077091
 20
230.1708758830127
 30
0.0
 10
8.775470781965934
 20
229.9188999708988
 30
0.0
 10
10.92447996218832
 20
229.4367512140714
 30
0.0
 10
13.04327118144718
 20
228.8513945588581
 30
0.0
 10
15.13191245649239
 20
228.1630604936227
 30
0.0
 10
16.50414162866709
 20
227.6351816375842
 30
0.0
 10
17.8661484167609
 20
227.0723859671315
 30
0.0
 10
18.54204082410389
 20
226.7735304045484
 30
0.0
 10
19.38039101627633
 20
226.3777073849991
 30
0.0
 10
19.5477381956871
 20
226.2974279020204
 30
0.0
 10
19.88176416592814
 20
226.1346346961759
 30
0.0
 10
20.38076227086128
 20
225.8875993706758
 30
0.0
 10
20.8736761103543
 20
225.6320809555208
 30
0.0
 10
21.8514780789451
 20
225.1098543074404
 30
0.0
 10
23.13382249055536
 20
224.3837270567608
 30
0.0
 10
24.99417059570478
 20
223.2064652443553
 30
0.0
 10
26.79188601099038
 20
221.9418794438962
 30
0.0
 10
27.94866453633933
 20
221.0406842164167
 30
0.0
 10
29.08447256062952
 20
220.1102497915112
 30
0.0
 10
29.64189159303082
 20
219.6304132909708
 30
0.0
 10
30.73548404429717
 20
218.6411162286573
 30
0.0
 10
31.27165784318014
 20
218.1316563381795
 30
0.0
 10
31.92832156969044
 20
217.4759333191128
 30
0.0
 10
32.05904147672542
 20
217.3437746249584
 30
0.0
 10
32.31843105129082
 20
217.0782630296562
 30
0.0
 10
32.70465697447869
 20
216.6779922913854
 30
0.0
 10
33.08235916176604
 20
216.2717476773464
 30
0.0
 10
33.82651464231665
 20
215.4513746549584
 30
0.0
 10
34.78873929786254
 20
214.3365306081546
 30
0.0
 10
36.1434568133932
 20
212.6021554235132
 30
0.0
 10
37.41022642827869
 20
210.8061411872284
 30
0.0
 10
38.58908702021999
 20
208.9485140838157
 30
0.0
 10
39.31599316445705
 20
207.6687442815159
 30
0.0
 10
40.01298300092515
 20
206.3680069395434
 30
0.0
 10
40.34653384670445
 20
205.7071266573397
 30
0.0
 10
40.9830172271269
 20
204.3640570777988
 30
0.0
 10
41.58357365496816
 20
203.0108896076418
 30
0.0
 10
42.37891074555571
 20
200.9514839428038
 30
0.0
 10
43.07021051725773
 20
198.8628368447823
 30
0.0
 10
43.65816645522438
 20
196.745144855321
 30
0.0
 10
44.14273055942116
 20
194.598395135979
 30
0.0
 10
44.39631834226572
 20
193.1477084772868
 30
0.0
 10
44.56007189487753
 20
192.0522629906033
 30
0.0
 10
44.63533626351195
 20
191.5026817525048
 30
0.0
 10
44.70057952514875
 20
190.9502838627019
 30
0.0
 10
44.74183462720792
 20
190.5813888737684
 30
0.0
 10
44.76134736406685
 20
190.3965648728903
 30
0.0
 10
44.85312330888843
 20
189.4724706493512
 30
0.0
 10
44.9632044851891
 20
187.991980845253
 30
0.0
 10
45.00000000000022
 20
186.5076232431196
 30
0.0
 10
45.00000000000023
 20
185.7644727892105
 30
0.0
  0
SPLINE
  5
B6
330
1F
100
AcDbEntity
  8
Top$9
  6
Continuous
 62
    18
 60
     1
370
    35
100
AcDbSpline
210
0.0
220
0.0
230
1.0
 70
    24
 71
     3
 72
     8
 73
     4
 74
     0
 42
0.000000001
 43
0.0000000001
 40
0.0
 40
0.0
 40
0.0
 40
0.0
 40
1.0
 40
1.0
 40
1.0
 40
1.0
 10
55.81684291679698
 20
185.7644727892105
 30
0.0
 10
52.21224447620644
 20
185.7644727892105
 30
0.0
 10
48.60657525084336
 20
185.7644727892105
 30
0.0
 10
45.00000000000023
 20
185.7644727892105
 30
0.0
  0
SPLINE
  5
B7
330
1F
100
AcDbEntity
  8
Top$9
  6
Continuous
 62
    18
 60
     1
370
    35
100
AcDbSpline
210
0.0
220
0.0
230
1.0
 70
    24
 71
     3
 72
     8
 73
     4
 74
     0
 42
0.000000001
 43
0.0000000001
 40
0.0
 40
0.0
 40
0.0
 40
0.0
 40
1.0
 40
1.0
 40
1.0
 40
1.0
 10
-55.81684291679653
 20
185.7644727892105
 30
0.0
 10
-52.212244476206
 20
185.7644727892105
 30
0.0
 10
-48.60657525084293
 20
185.7644727892105
 30
0.0
 10
-44.99999999999978
 20
185.7644727892105
 30
0.0
  0
SPLINE
  5
B8
330
1F
100
AcDbEntity
  8
Top$9
  6
Continuous
 62
    18
 60
     1
370
    35
100
AcDbSpline
210
0.0
220
0.0
230
1.0
 70
     8
 71
     3
 72
    17
 73
    13
 74
     0
 42
0.000000001
 43
0.0000000001
 40
0.0
 40
0.0
 40
0.0
 40
0.0
 40
0.1253046201056324
 40
0.1879558120177241
 40
0.2712886309194948
 40
0.3753032937042056
 40
0.5
 40
0.6246967062957943
 40
0.728711369080505
 40
0.8120441879822758
 40
0.8746953798943675
 40
1.0
 40
1.0
 40
1.0
 40
1.0
 10
-55.81684291679651
 20
185.7644727892105
 30
0.0
 10
-55.81672833472906
 20
178.4699519307868
 30
0.0
 10
-53.63201165545262
 20
167.5060416716879
 30
0.0
 10
-46.13625418057214
 20
153.4841188823983
 30
0.0
 10
-36.46110122587814
 20
142.4337818907989
 30
0.0
 10
-20.69535595725406
 20
132.6043450975134
 30
0.0
 10
0.0000003974922193
 20
128.4991507720458
 30
0.0
 10
20.69535449914154
 20
132.6043450974151
 30
0.0
 10
36.46110507602107
 20
142.4337818910916
 30
0.0
 10
46.13624869409639
 20
153.4841188819795
 30
0.0
 10
53.6320317318042
 20
167.5060416732212
 30
0.0
 10
55.81695749886413
 20
178.4699519482903
 30
0.0
 10
55.81684291679696
 20
185.7644727892105
 30
0.0
  0
SPLINE
  5
B9
330
1F
100
AcDbEntity
  8
Top$9
  6
Continuous
 62
    18
 60
     1
370
    35
100
AcDbSpline
210
0.0
220
0.0
230
1.0
 70
     8
 71
     3
 72
    33
 73
    29
 74
     0
 42
0.000000001
 43
0.0000000001
 40
0.0
 40
0.0
 40
0.0
 40
0.0
 40
0.0125295905073681
 40
0.0250316598621302
 40
0.0375255535597829
 40
0.0500306552804702
 40
0.0625662971072958
 40
0.093835666333708
 40
0.1251114359879757
 40
0.1563809275528454
 40
0.1876565743747418
 40
0.2501260091931576
 40
0.3125954262406734
 40
0.3750648212173702
 40
0.4375341918562248
 40
0.5000035534992098
 40
0.5624729089398884
 40
0.6249422776755725
 40
0.6874116737924147
 40
0.7498810961323662
 40
0.8123505370633075
 40
0.8436201938706659
 40
0.8748956793307473
 40
0.9061654637656626
 40
0.9374408198676675
 40
0.9583103809148884
 40
0.9791335370248384
 40
1.0
 40
1.0
 40
1.0
 40
1.0
 10
-58.49999989458261
 20
185.7644726451268
 30
0.0
 10
-58.49140068963325
 20
186.5312271382994
 30
0.0
 10
-58.47422116782438
 20
188.063051954088
 30
0.0
 10
-58.33427128969663
 20
190.3559219766555
 30
0.0
 10
-58.11065158382333
 20
192.6401852003463
 30
0.0
 10
-57.79518456100455
 20
194.9158934104825
 30
0.0
 10
-57.18909432420702
 20
198.3084431207523
 30
0.0
 10
-56.07239845633004
 20
202.7734319049135
 30
0.0
 10
-54.13370170693542
 20
208.1861298103497
 30
0.0
 10
-51.67663920038946
 20
213.3854635131276
 30
0.0
 10
-47.73763407226053
 20
219.9549583278696
 30
0.0
 10
-41.63278734378878
 20
227.3973966120064
 30
0.0
 10
-32.71145542939072
 20
234.7179532545539
 30
0.0
 10
-22.53212381758567
 20
240.1595518976383
 30
0.0
 10
-11.48686614091947
 20
243.5101203759582
 30
0.0
 10
0.0000001092171484
 20
244.6415391503065
 30
0.0
 10
11.48686586144029
 20
243.5101119723844
 30
0.0
 10
22.53212267894382
 20
240.159547068624
 30
0.0
 10
32.71145892634779
 20
234.7179621149176
 30
0.0
 10
41.63278750934619
 20
227.3974095975425
 30
0.0
 10
47.73741734144615
 20
219.9552552062077
 30
0.0
 10
51.67644389248507
 20
213.3857883965345
 30
0.0
 10
54.13351130561624
 20
208.186834534802
 30
0.0
 10
56.07196147949385
 20
202.7736933413076
 30
0.0
 10
57.3140479777476
 20
197.8134960861773
 30
0.0
 10
58.03879885669807
 20
193.4055176164444
 30
0.0
 10
58.42833350541029
 20
189.5930585108984
 30
0.0
 10
58.47609463764514
 20
187.0415515349975
 30
0.0
 10
58.50000001071644
 20
185.7644728038437
 30
0.0
  0
SPLINE
  5
BA
330
1F
100
AcDbEntity
  8
Top$9
  6
Continuous
 62
    18
 60
     1
370
    35
100
AcDbSpline
210
0.0
220
0.0
230
1.0
 70
     8
 71
     3
 72
    25
 73
    21
 74
     0
 42
0.000000001
 43
0.0000000001
 40
0.0
 40
0.0
 40
0.0
 40
0.0
 40
0.0252093871753269
 40
0.0501865307687996
 40
0.0750873566446601
 40
0.1000692218566309
 40
0.1252879693557581
 40
0.1878394594776578
 40
0.2504062688818224
 40
0.3129597868955974
 40
0.3755245933859191
 40
0.5000285224768967
 40
0.6245324343534837
 40
0.6870808695875404
 40
0.7496507251976485
 40
0.8122011932760059
 40
0.8747690159351371
 40
0.9166331084157373
 40
0.958134483598708
 40
1.0
 40
1.0
 40
1.0
 40
1.0
 10
58.50000001071644
 20
185.7644728038437
 30
0.0
 10
58.46619433413774
 20
184.2235703591532
 30
0.0
 10
58.39889441859525
 20
181.1559611620575
 30
0.0
 10
57.84435492766607
 20
176.5938805289262
 30
0.0
 10
56.95630753061969
 20
172.1025110008968
 30
0.0
 10
55.70264244047959
 20
167.6818503655558
 30
0.0
 10
53.31050909097888
 20
161.2155194571002
 30
0.0
 10
48.97254375471219
 20
153.0411336292709
 30
0.0
 10
41.62696876483863
 20
144.1407569425104
 30
0.0
 10
32.71968689477037
 20
136.7938804846794
 30
0.0
 10
19.18131960900951
 20
129.583570183561
 30
0.0
 10
0.0000175179040942
 20
125.7211193989447
 30
0.0
 10
-19.18036345892022
 20
129.5833436185907
 30
0.0
 10
-32.71874713903667
 20
136.7933533029465
 30
0.0
 10
-41.62582881248854
 20
144.1391407037753
 30
0.0
 10
-48.97095124583151
 20
153.0410379829429
 30
0.0
 10
-53.79374781437229
 20
162.1171817870828
 30
0.0
 10
-56.66741523619689
 20
170.5771454687915
 30
0.0
 10
-58.21988419601918
 20
178.1059614870909
 30
0.0
 10
-58.40635649539301
 20
183.2042126481042
 30
0.0
 10
-58.49999989458261
 20
185.7644726451268
 30
0.0
  0
SPLINE
  5
BB
330
1F
100
AcDbEntity
  8
SX$10
  6
Continuous
 62
    18
 60
     1
370
    35
100
AcDbSpline
210
0.0
220
-1.0
230
0.0
 70
     8
 71
     3
 72
     9
 73
     5
 74
     0
 42
0.000000001
 43
0.0000000001
 40
0.0
 40
0.0
 40
0.0
 40
0.0
 40
0.8422538276103868
 40
1.0
 40
1.0
 40
1.0
 40
1.0
 10
-164.2363019419639
 20
0.0
 30
-94.23583987904753
 10
-141.4908679659023
 20
0.0
 30
-94.23593400248305
 10
-114.485429427312
 20
0.0
 30
-94.23607839999829
 10
-87.47999088987642
 20
0.0
 30
-94.23627263627182
 10
-83.21998630197619
 20
0.0
 30
-94.23662208719844
  0
SPLINE
  5
BC
330
1F
100
AcDbEntity
  8
SX$10
  6
Continuous
 62
    18
 60
     1
370
    35
100
AcDbSpline
210
0.0
220
-1.0
230
0.0
 70
     8
 71
     3
 72
     9
 73
     5
 74
     0
 42
0.000000001
 43
0.0000000001
 40
0.0
 40
0.0
 40
0.0
 40
0.0
 40
0.1407671574616124
 40
1.0
 40
1.0
 40
1.0
 40
1.0
 10
88.74973652655173
 20
0.0
 30
-94.23671580986662
 10
93.16649103625514
 20
0.0
 30
-94.23646131512379
 10
124.5428047413689
 20
0.0
 30
-94.23621700322808
 10
155.9191184479591
 20
0.0
 30
-94.23603653095768
 10
182.8786776632856
 20
0.0
 30
-94.23591762044596
  0
SPLINE
  5
BD
330
1F
100
AcDbEntity
  8
SX$10
  6
Continuous
 62
    18
 60
     1
370
    35
100
AcDbSpline
210
0.0
220
-1.0
230
0.0
 70
     8
 71
     3
 72
    33
 73
    29
 74
     0
 42
0.000000001
 43
0.0000000001
 40
0.0
 40
0.0
 40
0.0
 40
0.0
 40
0.0125295905073681
 40
0.0250316598621302
 40
0.0375255535597829
 40
0.0500306552804702
 40
0.0625662971072958
 40
0.093835666333708
 40
0.1251114359879757
 40
0.1563809275528454
 40
0.1876565743747418
 40
0.2501260091931576
 40
0.3125954262406734
 40
0.3750648212173702
 40
0.4375341918562248
 40
0.5000035534992098
 40
0.5624729089398884
 40
0.6249422776755725
 40
0.6874116737924147
 40
0.7498810961323662
 40
0.8123505370633075
 40
0.8436201938706659
 40
0.8748956793307473
 40
0.9061654637656626
 40
0.9374408198676675
 40
0.9583103809148884
 40
0.9791335370248384
 40
1.0
 40
1.0
 40
1.0
 40
1.0
 10
-58.49999989458261
 20
0.0
 30
-96.35724333396722
 10
-58.49140068963325
 20
0.0
 30
-96.3486558778946
 10
-58.47422116782438
 20
0.0
 30
-96.33149982803288
 10
-58.33427128969663
 20
0.0
 30
-96.3050232221885
 10
-58.11065158382333
 20
0.0
 30
-96.27810222158901
 10
-57.79518456100455
 20
0.0
 30
-96.2507071700718
 10
-57.18909432420702
 20
0.0
 30
-96.20906232281992
 10
-56.07239845633004
 20
0.0
 30
-96.15244892012821
 10
-54.13370170693542
 20
0.0
 30
-96.08116355931784
 10
-51.67663920038946
 20
0.0
 30
-96.01045789080534
 10
-47.73763407226053
 20
0.0
 30
-95.91884093430154
 10
-41.63278734378878
 20
0.0
 30
-95.81178079027131
 10
-32.71145542939072
 20
0.0
 30
-95.70421345501212
 10
-22.53212381758567
 20
0.0
 30
-95.62344056771958
 10
-11.48686614091947
 20
0.0
 30
-95.57333947338991
 10
0.0000001092171484
 20
0.0
 30
-95.55625349852589
 10
11.48686586144029
 20
0.0
 30
-95.57300605952133
 10
22.53212267894382
 20
0.0
 30
-95.62325326304021
 10
32.71145892634779
 20
0.0
 30
-95.70457211189418
 10
41.63278750934619
 20
0.0
 30
-95.81241261391563
 10
47.73741734144615
 20
0.0
 30
-95.91926671980043
 10
51.67644389248507
 20
0.0
 30
-96.01071838257602
 10
54.13351130561624
 20
0.0
 30
-96.08132095453996
 10
56.07196147949385
 20
0.0
 30
-96.15254035597282
 10
57.3140479777476
 20
0.0
 30
-96.21540743516884
 10
58.03879885669807
 20
0.0
 30
-96.26913023906775
 10
58.42833350541029
 20
0.0
 30
-96.3141784275108
 10
58.47609463764514
 20
0.0
 30
-96.34288794155388
 10
58.50000001071644
 20
0.0
 30
-96.35725761018988
  0
SPLINE
  5
BE
330
1F
100
AcDbEntity
  8
SX$10
  6
Continuous
 62
    18
370
    35
100
AcDbSpline
210
0.0
220
-1.0
230
0.0
 70
     8
 71
     3
 72
   121
 73
   117
 74
     0
 42
0.000000001
 43
0.0000000001
 40
0.0
 40
0.0
 40
0.0
 40
0.0
 40
0.0156250000000007
 40
0.0312500000000013
 40
0.046875000000002
 40
0.0625000000000027
 40
0.0781250000000034
 40
0.093750000000004
 40
0.093750000000004
 40
0.1015625000000044
 40
0.1054687500000046
 40
0.1054687500000046
 40
0.1093750000000048
 40
0.1093750000000048
 40
0.1250000000000039
 40
0.140625000000003
 40
0.1562500000000021
 40
0.1718750000000012
 40
0.1875000000000004
 40
0.1875000000000004
 40
0.2031249999999995
 40
0.2031249999999995
 40
0.210937499999999
 40
0.2148437499999988
 40
0.2148437499999988
 40
0.2187499999999986
 40
0.2187499999999986
 40
0.2343749999999979
 40
0.2499999999999972
 40
0.2656249999999965
 40
0.2656249999999965
 40
0.2812499999999958
 40
0.2812499999999958
 40
0.2968749999999951
 40
0.3124999999999943
 40
0.3124999999999943
 40
0.3203124999999939
 40
0.3203124999999939
 40
0.3242187499999937
 40
0.3242187499999937
 40
0.3281249999999934
 40
0.3437499999999933
 40
0.3593749999999931
 40
0.374999999999993
 40
0.374999999999993
 40
0.3906249999999928
 40
0.4062499999999926
 40
0.4218749999999925
 40
0.4218749999999925
 40
0.4296874999999923
 40
0.4296874999999923
 40
0.4374999999999922
 40
0.4374999999999922
 40
0.4531249999999921
 40
0.4687499999999918
 40
0.4843749999999916
 40
0.4999999999999914
 40
0.4999999999999914
 40
0.5156249999999912
 40
0.531249999999991
 40
0.531249999999991
 40
0.535156249999991
 40
0.535156249999991
 40
0.5390624999999909
 40
0.5390624999999909
 40
0.5468749999999908
 40
0.5468749999999908
 40
0.5624999999999905
 40
0.5781249999999901
 40
0.5937499999999898
 40
0.6093749999999895
 40
0.6249999999999892
 40
0.6249999999999892
 40
0.6406249999999891
 40
0.6406249999999891
 40
0.6445312499999891
 40
0.6445312499999891
 40
0.6484374999999892
 40
0.6562499999999896
 40
0.6562499999999896
 40
0.6718749999999901
 40
0.6874999999999907
 40
0.7031249999999912
 40
0.7187499999999918
 40
0.7187499999999918
 40
0.7343749999999923
 40
0.7343749999999923
 40
0.7499999999999929
 40
0.7499999999999929
 40
0.7539062499999932
 40
0.7539062499999932
 40
0.7578124999999934
 40
0.7656249999999937
 40
0.7656249999999937
 40
0.7812499999999946
 40
0.7968749999999954
 40
0.8124999999999963
 40
0.8281249999999972
 40
0.8437499999999981
 40
0.8437499999999981
 40
0.859374999999999
 40
0.859374999999999
 40
0.8749999999999999
 40
0.8906250000000009
 40
0.9062500000000018
 40
0.9218750000000027
 40
0.9375000000000036
 40
0.9531250000000044
 40
0.9531250000000044
 40
0.9609375000000046
 40
0.9648437500000042
 40
0.9648437500000042
 40
0.968750000000004
 40
0.968750000000004
 40
0.984375000000002
 40
1.0
 40
1.0
 40
1.0
 40
1.0
 10
-44.99999999999978
 20
0.0
 30
-101.9098226634823
 10
-44.99999999999979
 20
0.0
 30
-101.9023929489219
 10
-44.96320729169518
 20
0.0
 30
-101.8871645026802
 10
-44.79998131959202
 20
0.0
 30
-101.8636153267849
 10
-44.53021772484695
 20
0.0
 30
-101.839661091334
 10
-44.15462932336191
 20
0.0
 30
-101.8155105164387
 10
-43.6731689179667
 20
0.0
 30
-101.7912834745173
 10
-43.28107542562778
 20
0.0
 30
-101.7751027407533
 10
-42.95993479603057
 20
0.0
 30
-101.7629420367449
 10
-42.79259369516022
 20
0.0
 30
-101.7568550457123
 10
-42.61499158800943
 20
0.0
 30
-101.7507521972755
 10
-42.49429615985135
 20
0.0
 30
-101.7466792211335
 10
-42.43276724707552
 20
0.0
 30
-101.7446394575739
 10
-42.12018740609854
 20
0.0
 30
-101.7344541147506
 10
-41.58751656952361
 20
0.0
 30
-101.7182109216961
 10
-40.69286120733231
 20
0.0
 30
-101.6937797877323
 10
-39.70379633113789
 20
0.0
 30
-101.6694986155581
 10
-38.62086863210177
 20
0.0
 30
-101.6455002759461
 10
-37.83625732812187
 20
0.0
 30
-101.6297249190414
 10
-37.0200483022738
 20
0.0
 30
-101.6140520326116
 10
-36.59614531664123
 20
0.0
 30
-101.6062658428709
 10
-35.9362144755631
 20
0.0
 30
-101.5946847507329
 10
-35.60022713577106
 20
0.0
 30
-101.5889186315858
 10
-35.25510928667461
 20
0.0
 30
-101.583192305758
 10
-35.02298893487259
 20
0.0
 30
-101.5793838688513
 10
-34.90615053701129
 20
0.0
 30
-101.5774881914972
 10
-34.31810742734302
 20
0.0
 30
-101.5680529738683
 10
-33.35257190155837
 20
0.0
 30
-101.5532331892562
 10
-31.83170022382833
 20
0.0
 30
-101.5318277340266
 10
-30.76999045901507
 20
0.0
 30
-101.5180837253229
 10
-29.68450038999851
 20
0.0
 30
-101.5045827472013
 10
-29.12986523939288
 20
0.0
 30
-101.4979434421372
 10
-27.99676078984792
 20
0.0
 30
-101.4849648908507
 10
-26.83982206480076
 20
0.0
 30
-101.4722973438249
 10
-25.63476324001032
 20
0.0
 30
-101.4604163201389
 10
-24.71261858455713
 20
0.0
 30
-101.4518369831514
 10
-24.40217716418948
 20
0.0
 30
-101.4490321796684
 10
-23.93187345161786
 20
0.0
 30
-101.4449095901209
 10
-23.77424660083733
 20
0.0
 30
-101.443548776049
 10
-23.45826994563287
 20
0.0
 30
-101.440862478114
 10
-22.66611530779343
 20
0.0
 30
-101.4342310830064
 10
-21.22045746830791
 20
0.0
 30
-101.4230516121686
 10
-19.25149657001748
 20
0.0
 30
-101.4096267870409
 10
-17.91155344597324
 20
0.0
 30
-101.4015119513575
 10
-16.5580143790512
 20
0.0
 30
-101.3937080069812
 10
-15.19087926364271
 20
0.0
 30
-101.3862123039426
 10
-13.09925964763857
 20
0.0
 30
-101.3761555330196
 10
-11.67728510156528
 20
0.0
 30
-101.3703834814641
 10
-10.60028390757704
 20
0.0
 30
-101.3664439022926
 10
-10.23952929363346
 20
0.0
 30
-101.3651954793223
 10
-9.514470348764693
 20
0.0
 30
-101.3628330704393
 10
-9.15168602765434
 20
0.0
 30
-101.3617240444902
 10
-8.062619687558938
 20
0.0
 30
-101.3586138162505
 10
-6.608592002257854
 20
0.0
 30
-101.355046249901
 10
-4.421834671769412
 20
0.0
 30
-101.3513900446655
 10
-2.229420307949824
 20
0.0
 30
-101.3493274757625
 10
-0.7640512426350266
 20
0.0
 30
-101.3489093340771
 10
0.7032051022108585
 20
0.0
 30
-101.3488981423605
 10
2.172348725120364
 20
0.0
 30
-101.3492914006351
 10
3.645309554906901
 20
0.0
 30
-101.3506524122454
 10
4.56712541030338
 20
0.0
 30
-101.3518445157406
 10
4.751549385332225
 20
0.0
 30
-101.3520999673472
 10
5.120519656578627
 20
0.0
 30
-101.3526457353591
 10
5.305163112357431
 20
0.0
 30
-101.3529362325829
 10
5.857820031613202
 20
0.0
 30
-101.3538585737596
 10
6.224950303109184
 20
0.0
 30
-101.3545418123212
 10
7.322461823077091
 20
0.0
 30
-101.35679856523
 10
8.775470781965934
 20
0.0
 30
-101.3603609598143
 10
10.92447996218832
 20
0.0
 30
-101.36734984709
 10
13.04327118144718
 20
0.0
 30
-101.3759096060779
 10
15.13191245649239
 20
0.0
 30
-101.3859081973042
 10
16.50414162866709
 20
0.0
 30
-101.393407251719
 10
17.8661484167609
 20
0.0
 30
-101.4012410048547
 10
18.54204082410389
 20
0.0
 30
-101.4053237039366
 10
19.38039101627633
 20
0.0
 30
-101.4107068190002
 10
19.5477381956871
 20
0.0
 30
-101.4117973842931
 10
19.88176416592814
 20
0.0
 30
-101.4140078173201
 10
20.38076227086128
 20
0.0
 30
-101.4173605175294
 10
20.8736761103543
 20
0.0
 30
-101.4208294308918
 10
21.8514780789451
 20
0.0
 30
-101.4279324663066
 10
23.13382249055536
 20
0.0
 30
-101.4378459409646
 10
24.99417059570478
 20
0.0
 30
-101.4541277366541
 10
26.79188601099038
 20
0.0
 30
-101.4718013738002
 10
27.94866453633933
 20
0.0
 30
-101.4844306949421
 10
29.08447256062952
 20
0.0
 30
-101.4974081378313
 10
29.64189159303082
 20
0.0
 30
-101.5040660609727
 10
30.73548404429717
 20
0.0
 30
-101.5176421815945
 10
31.27165784318014
 20
0.0
 30
-101.5245706314431
 10
31.92832156969044
 20
0.0
 30
-101.533422669007
 10
32.05904147672542
 20
0.0
 30
-101.5352035518788
 10
32.31843105129082
 20
0.0
 30
-101.5387752336097
 10
32.70465697447869
 20
0.0
 30
-101.5441504898437
 10
33.08235916176604
 20
0.0
 30
-101.5495794144993
 10
33.82651464231665
 20
0.0
 30
-101.5605091381439
 10
34.78873929786254
 20
0.0
 30
-101.5752744335007
 10
36.1434568133932
 20
0.0
 30
-101.5979803807959
 10
37.41022642827869
 20
0.0
 30
-101.6211929744265
 10
38.58908702021999
 20
0.0
 30
-101.6448293343979
 10
39.31599316445705
 20
0.0
 30
-101.6608935947653
 10
40.01298300092515
 20
0.0
 30
-101.6770963803379
 10
40.34653384670445
 20
0.0
 30
-101.6852674421532
 10
40.9830172271269
 20
0.0
 30
-101.7017037728504
 10
41.58357365496816
 20
0.0
 30
-101.7180973374667
 10
42.37891074555571
 20
0.0
 30
-101.7423396536829
 10
43.07021051725773
 20
0.0
 30
-101.76646269838
 10
43.65816645522438
 20
0.0
 30
-101.790609093155
 10
44.14273055942116
 20
0.0
 30
-101.8148357167164
 10
44.39631834226572
 20
0.0
 30
-101.8310205795166
 10
44.56007189487753
 20
0.0
 30
-101.8431419576931
 10
44.63533626351195
 20
0.0
 30
-101.8491979713305
 10
44.70057952514875
 20
0.0
 30
-101.8552380022603
 10
44.74183462720792
 20
0.0
 30
-101.8592598994997
 10
44.76134736406685
 20
0.0
 30
-101.8612691273735
 10
44.85312330888843
 20
0.0
 30
-101.8712826391021
 10
44.9632044851891
 20
0.0
 30
-101.8871208181681
 10
45.00000000000022
 20
0.0
 30
-101.9023929617495
 10
45.00000000000023
 20
0.0
 30
-101.9098226634823
  0
SPLINE
  5
BF
330
1F
100
AcDbEntity
  8
SX$10
  6
Continuous
 62
    18
370
    35
100
AcDbSpline
210
0.0
220
-1.0
230
0.0
 70
     8
 71
     3
 72
   124
 73
   120
 74
     0
 42
0.000000001
 43
0.0000000001
 40
0.0
 40
0.0
 40
0.0
 40
0.0
 40
0.0156249999999989
 40
0.0312499999999978
 40
0.0468749999999967
 40
0.0624999999999956
 40
0.0781249999999946
 40
0.0937499999999935
 40
0.0937499999999935
 40
0.1015624999999932
 40
0.1054687499999933
 40
0.1054687499999933
 40
0.1093749999999935
 40
0.1093749999999935
 40
0.1249999999999936
 40
0.1406249999999938
 40
0.1562499999999939
 40
0.1562499999999939
 40
0.171874999999994
 40
0.171874999999994
 40
0.1874999999999941
 40
0.2031249999999943
 40
0.2031249999999943
 40
0.2109374999999943
 40
0.2148437499999946
 40
0.2148437499999946
 40
0.2187499999999948
 40
0.2187499999999948
 40
0.234374999999995
 40
0.234374999999995
 40
0.2499999999999951
 40
0.2499999999999951
 40
0.2656249999999952
 40
0.2812499999999954
 40
0.2968749999999955
 40
0.3124999999999956
 40
0.3124999999999956
 40
0.3203124999999958
 40
0.3203124999999958
 40
0.3242187499999959
 40
0.3242187499999959
 40
0.3281249999999961
 40
0.3281249999999961
 40
0.3437499999999968
 40
0.3437499999999968
 40
0.3593749999999975
 40
0.3749999999999982
 40
0.3906249999999988
 40
0.4062499999999996
 40
0.4218750000000002
 40
0.4218750000000002
 40
0.4296875000000007
 40
0.4296875000000007
 40
0.4375000000000011
 40
0.4375000000000011
 40
0.453125000000002
 40
0.453125000000002
 40
0.4687500000000028
 40
0.4843750000000037
 40
0.5000000000000046
 40
0.5156250000000053
 40
0.5312500000000061
 40
0.5312500000000061
 40
0.5351562500000063
 40
0.5351562500000063
 40
0.5390625000000064
 40
0.5390625000000064
 40
0.5468750000000068
 40
0.5468750000000068
 40
0.5625000000000072
 40
0.5625000000000072
 40
0.5781250000000077
 40
0.5937500000000081
 40
0.6093750000000085
 40
0.625000000000009
 40
0.6406250000000095
 40
0.6406250000000095
 40
0.6445312500000097
 40
0.6445312500000097
 40
0.6484375000000099
 40
0.6562500000000101
 40
0.6562500000000101
 40
0.6718750000000102
 40
0.6718750000000102
 40
0.6875000000000104
 40
0.7031250000000107
 40
0.718750000000011
 40
0.7343750000000112
 40
0.7500000000000114
 40
0.7500000000000114
 40
0.7539062500000113
 40
0.7539062500000113
 40
0.7578125000000111
 40
0.7656250000000108
 40
0.7656250000000108
 40
0.7812500000000101
 40
0.7968750000000095
 40
0.8125000000000089
 40
0.8281250000000082
 40
0.8281250000000082
 40
0.8437500000000075
 40
0.8437500000000075
 40
0.8593750000000069
 40
0.8593750000000069
 40
0.8750000000000062
 40
0.8906250000000057
 40
0.8906250000000057
 40
0.906250000000005
 40
0.9218750000000043
 40
0.9375000000000037
 40
0.953125000000003
 40
0.953125000000003
 40
0.9609375000000031
 40
0.9648437500000028
 40
0.9648437500000028
 40
0.9687500000000026
 40
0.9687500000000026
 40
0.9843750000000013
 40
1.0
 40
1.0
 40
1.0
 40
1.0
 10
-44.99999999999978
 20
0.0
 30
-102.9476366841863
 10
-44.99999999999979
 20
0.0
 30
-102.9402003222025
 10
-44.96320740277607
 20
0.0
 30
-102.9250017719099
 10
-44.79998176269795
 20
0.0
 30
-102.901581619441
 10
-44.53021860373107
 20
0.0
 30
-102.8777955687425
 10
-44.1546307790138
 20
0.0
 30
-102.8538075219183
 10
-43.67317122473546
 20
0.0
 30
-102.8296924840025
 10
-43.28107863673596
 20
0.0
 30
-102.813522608618
 10
-42.95993889567627
 20
0.0
 30
-102.8013346690704
 10
-42.79259829206539
 20
0.0
 30
-102.7952252127071
 10
-42.61499678140589
 20
0.0
 30
-102.7890844525697
 10
-42.49430177544847
 20
0.0
 30
-102.7849825256104
 10
-42.43277307720052
 20
0.0
 30
-102.7829264365554
 10
-42.12019432049731
 20
0.0
 30
-102.7726499234815
 10
-41.58752569035492
 20
0.0
 30
-102.7561857842157
 10
-40.69287293866455
 20
0.0
 30
-102.7316187659655
 10
-40.03349855405149
 20
0.0
 30
-102.7154063938631
 10
-39.34283640863278
 20
0.0
 30
-102.6992886864953
 10
-38.98186156186458
 20
0.0
 30
-102.6912752372392
 10
-38.22858226520246
 20
0.0
 30
-102.6753377777422
 10
-37.4439737019519
 20
0.0
 30
-102.6594965977082
 10
-36.59616985249011
 20
0.0
 30
-102.6438940467639
 10
-35.93624104339871
 20
0.0
 30
-102.6322906653918
 10
-35.600254742099
 20
0.0
 30
-102.6265134781139
 10
-35.25513798501009
 20
0.0
 30
-102.6207735703354
 10
-35.02301837560016
 20
0.0
 30
-102.6169552265049
 10
-34.90618024749072
 20
0.0
 30
-102.6150541779146
 10
-34.3181387832716
 20
0.0
 30
-102.6055893309828
 10
-33.83537219686375
 20
0.0
 30
-102.5981467490009
 10
-32.84565051920068
 20
0.0
 30
-102.5835017730219
 10
-32.33869501108516
 20
0.0
 30
-102.5762901441854
 10
-31.30088670368364
 20
0.0
 30
-102.562146248587
 10
-30.23918056721046
 20
0.0
 30
-102.5482950579662
 10
-28.57527818406771
 20
0.0
 30
-102.5286065543487
 10
-26.83987173767007
 20
0.0
 30
-102.5101118588633
 10
-25.63481329577341
 20
0.0
 30
-102.4985795687642
 10
-24.71266969033024
 20
0.0
 30
-102.4902038368389
 10
-24.40222869985458
 20
0.0
 30
-102.4874572254013
 10
-23.93192582199658
 20
0.0
 30
-102.4833994890861
 10
-23.77429922782029
 20
0.0
 30
-102.4820565545422
 10
-23.4583229985233
 20
0.0
 30
-102.4793971452339
 10
-23.29989251885821
 20
0.0
 30
-102.4780799546192
 10
-22.50554120099223
 20
0.0
 30
-102.4715526044816
 10
-21.86302796500122
 20
0.0
 30
-102.466504899589
 10
-20.56419673312912
 20
0.0
 30
-102.456782307089
 10
-19.25156016460707
 20
0.0
 30
-102.4474467687785
 10
-17.24165159912368
 20
0.0
 30
-102.4347693295875
 10
-15.19095273253781
 20
0.0
 30
-102.4235250300962
 10
-13.09933542321942
 20
0.0
 30
-102.4137642423483
 10
-11.67736182985842
 20
0.0
 30
-102.4082412658863
 10
-10.60036172660673
 20
0.0
 30
-102.4044514884645
 10
-10.23960750957626
 20
0.0
 30
-102.4032468115307
 10
-9.514549478706513
 20
0.0
 30
-102.4009499114482
 10
-9.151765341191204
 20
0.0
 30
-102.3998624897631
 10
-8.062699986965917
 20
0.0
 30
-102.3967702156727
 10
-7.335686821586938
 20
0.0
 30
-102.3949244255316
 10
-5.879755320453321
 20
0.0
 30
-102.3916786672743
 10
-4.421918584168076
 20
0.0
 30
-102.3888974424923
 10
-2.229506340930526
 20
0.0
 30
-102.3863049171926
 10
-0.0314545562067023
 20
0.0
 30
-102.3854084673417
 10
2.172259535114895
 20
0.0
 30
-102.3862567365131
 10
3.645219741290307
 20
0.0
 30
-102.3879719476433
 10
4.567035207807733
 20
0.0
 30
-102.3893841788645
 10
4.751459106190051
 20
0.0
 30
-102.3896835752871
 10
5.120429225247249
 20
0.0
 30
-102.3903155479803
 10
5.305072642563823
 20
0.0
 30
-102.3906483248243
 10
5.85772959430875
 20
0.0
 30
-102.3916923384157
 10
6.224859922268884
 20
0.0
 30
-102.392449893202
 10
7.322371785723876
 20
0.0
 30
-102.3948911248618
 10
8.048876681068032
 20
0.0
 30
-102.3967348696001
 10
9.491719224745225
 20
0.0
 30
-102.4008239441569
 10
10.92439410211906
 20
0.0
 30
-102.4053376858527
 10
13.04318928962122
 20
0.0
 30
-102.4135276613693
 10
15.13183435684385
 20
0.0
 30
-102.4232255015846
 10
17.19018073343027
 20
0.0
 30
-102.4344630760064
 10
18.54196599975571
 20
0.0
 30
-102.4429641409726
 10
19.38031657799316
 20
0.0
 30
-102.4485749487376
 10
19.54766389289558
 20
0.0
 30
-102.4497119633684
 10
19.88168989996435
 20
0.0
 30
-102.4520149196971
 10
20.38068807905039
 20
0.0
 30
-102.4555055702669
 10
20.87360211901799
 20
0.0
 30
-102.4591002179964
 10
21.85140481853514
 20
0.0
 30
-102.4664143850284
 10
22.49257784925225
 20
0.0
 30
-102.4714506849197
 10
23.75386950163785
 20
0.0
 30
-102.4818059031506
 10
24.99410590909361
 20
0.0
 30
-102.4924728324203
 10
26.79182961135666
 20
0.0
 30
-102.5096299201212
 10
28.52700525084592
 20
0.0
 30
-102.5280640471456
 10
30.19926824226533
 20
0.0
 30
-102.5477947875575
 10
31.27161791548194
 20
0.0
 30
-102.5617566980352
 10
31.92828313255228
 20
0.0
 30
-102.5706947092478
 10
32.059003301222
 20
0.0
 30
-102.572493732496
 10
32.31839333768912
 20
0.0
 30
-102.5761017359803
 10
32.70461994864869
 20
0.0
 30
-102.5815321450532
 10
33.0823228979923
 20
0.0
 30
-102.5870059154176
 10
33.82647999578454
 20
0.0
 30
-102.5980111241855
 10
34.78870663046835
 20
0.0
 30
-102.6128417352353
 10
36.14342820383163
 20
0.0
 30
-102.6355918166516
 10
37.41020169103822
 20
0.0
 30
-102.6588489349669
 10
38.19611100229439
 20
0.0
 30
-102.6746723964681
 10
38.95251950497043
 20
0.0
 30
-102.6906345066202
 10
39.31597368580544
 20
0.0
 30
-102.6986813857448
 10
40.01296569876113
 20
0.0
 30
-102.7149089321151
 10
40.34651757018677
 20
0.0
 30
-102.723092194403
 10
40.98300291189928
 20
0.0
 30
-102.7395861803316
 10
41.58356024370385
 20
0.0
 30
-102.7560697461168
 10
42.11378653325695
 20
0.0
 30
-102.7724516273853
 10
42.60933372973465
 20
0.0
 30
-102.7887192000018
 10
43.0702016678828
 20
0.0
 30
-102.8048860676893
 10
43.65816030880898
 20
0.0
 30
-102.8290196160972
 10
44.14272696921397
 20
0.0
 30
-102.8531365308394
 10
44.39631551138972
 20
0.0
 30
-102.8692129723718
 10
44.56006986178514
 20
0.0
 30
-102.8812511416442
 10
44.63533459661748
 20
0.0
 30
-102.8872650731276
 10
44.70057817175833
 20
0.0
 30
-102.8932644665781
 10
44.74183347092149
 20
0.0
 30
-102.8972598369951
 10
44.76134630126669
 20
0.0
 30
-102.8992560799129
 10
44.85312268457269
 20
0.0
 30
-102.9092067977352
 10
44.9632043797656
 20
0.0
 30
-102.9249580415631
 10
45.00000000000022
 20
0.0
 30
-102.9402003106748
 10
45.00000000000023
 20
0.0
 30
-102.9476366841863
  0
SPLINE
  5
C0
330
1F
100
AcDbEntity
  8
SX$10
  6
Continuous
 62
    18
370
    35
100
AcDbSpline
210
0.0
220
-1.0
230
0.0
 70
     8
 71
     3
 72
     9
 73
     5
 74
     0
 42
0.000000001
 43
0.0000000001
 40
0.0
 40
0.0
 40
0.0
 40
0.0
 40
0.5003189482014654
 40
1.0
 40
1.0
 40
1.0
 40
1.0
 10
56.53147532751813
 20
0.0
 30
-98.01947837726856
 10
56.61139822585999
 20
0.0
 30
-97.55851303507289
 10
57.11074084087549
 20
0.0
 30
-96.70957197656614
 10
58.03192844677152
 20
0.0
 30
-96.35832400167844
 10
58.50000000000022
 20
0.0
 30
-96.35725629370785
  0
SPLINE
  5
C1
330
1F
100
AcDbEntity
  8
SX$10
  6
Continuous
 62
    18
370
    35
100
AcDbSpline
210
0.0
220
-1.0
230
0.0
 70
     8
 71
     3
 72
    33
 73
    29
 74
     0
 42
0.000000001
 43
0.0000000001
 40
0.0
 40
0.0
 40
0.0
 40
0.0
 40
0.0174119629403464
 40
0.0564039717819254
 40
0.0720010660097697
 40
0.1031958579554486
 40
0.1187935854462472
 40
0.1421906109714037
 40
0.1655881383889845
 40
0.1811867323909148
 40
0.1967854732629886
 40
0.2201837276603589
 40
0.227983145873079
 40
0.2513812422624866
 40
0.2669797181809961
 40
0.2747788430259992
 40
0.2825778776044287
 40
0.2981756395469634
 40
0.3059743537928061
 40
0.3215714366697798
 40
0.3371680835672214
 40
0.3449662681604907
 40
0.3605624443694586
 40
0.3683604778869882
 40
0.3761584992863689
 40
0.3917545368408994
 40
0.4385426493915995
 40
1.0
 40
1.0
 40
1.0
 40
1.0
 10
58.50024405334223
 20
0.0
 30
-96.35725562382864
 10
60.70287562635911
 20
0.0
 30
-96.33932599614987
 10
67.8380101014871
 20
0.0
 30
-96.27650982795399
 10
76.94605368892748
 20
0.0
 30
-96.17472418288281
 10
87.79739283648102
 20
0.0
 30
-96.02527604528161
 10
95.68929432507753
 20
0.0
 30
-95.89860081319722
 10
104.5676447564537
 20
0.0
 30
-95.73607818741556
 10
112.4595625363391
 20
0.0
 30
-95.577452424296
 10
120.3514162866546
 20
0.0
 30
-95.40400652437985
 10
127.2567895699633
 20
0.0
 30
-95.24418844824697
 10
134.1621880201318
 20
0.0
 30
-95.0800141598993
 10
140.0810813054748
 20
0.0
 30
-94.93736634828892
 10
146.9864615903418
 20
0.0
 30
-94.7741817341313
 10
152.9053375933687
 20
0.0
 30
-94.63880671717844
 10
158.8242812893318
 20
0.0
 30
-94.51679449637398
 10
162.7702416269637
 20
0.0
 30
-94.44333021594416
 10
166.7161576664128
 20
0.0
 30
-94.3760662389345
 10
170.6620985138618
 20
0.0
 30
-94.31963780690911
 10
175.5945285440829
 20
0.0
 30
-94.26645995551382
 10
180.5269292701552
 20
0.0
 30
-94.23165348254619
 10
185.4594061761483
 20
0.0
 30
-94.23317135038225
 10
190.3918548158453
 20
0.0
 30
-94.23690995178842
 10
194.3378172100681
 20
0.0
 30
-94.23559307681379
 10
198.2837809845927
 20
0.0
 30
-94.23551480531852
 10
202.2297295585161
 20
0.0
 30
-94.235535777986
 10
211.1081081465685
 20
0.0
 30
-94.23552935864946
 10
290.0270270267876
 20
0.0
 30
-94.2355271990907
 10
366.9729729729829
 20
0.0
 30
-94.23552721079122
 10
438.0000000000002
 20
0.0
 30
-94.2355272107894
  0
SPLINE
  5
C2
330
1F
100
AcDbEntity
  8
SX$10
  6
Continuous
 62
    18
370
    35
100
AcDbSpline
210
0.0
220
-1.0
230
0.0
 70
     8
 71
     3
 72
    33
 73
    29
 74
     0
 42
0.000000001
 43
0.0000000001
 40
0.0
 40
0.0
 40
0.0
 40
0.0
 40
0.5770533868959599
 40
0.6082454618633095
 40
0.6238414993848618
 40
0.6316395207728797
 40
0.6394375542910166
 40
0.6550337305600781
 40
0.6628319152138489
 40
0.6784285622825227
 40
0.6940256453773983
 40
0.701824359741876
 40
0.7174221219269299
 40
0.7252211566244277
 40
0.7330202815843224
 40
0.7486187577139038
 40
0.7720168543576869
 40
0.7798162726363022
 40
0.803214527173499
 40
0.8188132680932927
 40
0.8344118621110295
 40
0.8578093895037208
 40
0.881206414961829
 40
0.8968041423930666
 40
0.9279989342032766
 40
0.9435960283617736
 40
0.9825880370428259
 40
1.0
 40
1.0
 40
1.0
 40
1.0
 10
437.9999999999999
 20
0.0
 30
-95.23552721078941
 10
365.0000000000146
 20
0.0
 30
-95.23552721079723
 10
288.054054050742
 20
0.0
 30
-95.23552704667124
 10
209.1351351583483
 20
0.0
 30
-95.23552859829165
 10
202.2297295583284
 20
0.0
 30
-95.23553577877347
 10
198.2837809802105
 20
0.0
 30
-95.23551480417767
 10
194.337817198224
 20
0.0
 30
-95.23559308287095
 10
190.3918548041079
 20
0.0
 30
-95.2369096856502
 10
185.4594061665607
 20
0.0
 30
-95.2331708657422
 10
180.5269292598177
 20
0.0
 30
-95.23166232160963
 10
175.5945285404357
 20
0.0
 30
-95.26648432364814
 10
170.662098512914
 20
0.0
 30
-95.31967531093814
 10
166.7161576673054
 20
0.0
 30
-95.37611298505176
 10
162.7702416282968
 20
0.0
 30
-95.44338508659762
 10
158.8242812929395
 20
0.0
 30
-95.51685677090924
 10
152.9053376045085
 20
0.0
 30
-95.63887854511682
 10
146.9864615993542
 20
0.0
 30
-95.77426075831615
 10
140.0810813146614
 20
0.0
 30
-95.93745187309287
 10
134.1621880322598
 20
0.0
 30
-96.08010371603346
 10
127.2567895770576
 20
0.0
 30
-96.24428081209581
 10
120.3514162952631
 20
0.0
 30
-96.40410035590078
 10
112.4595625448973
 20
0.0
 30
-96.57754626159777
 10
104.5676447603557
 20
0.0
 30
-96.73617043432316
 10
95.68929432763751
 20
0.0
 30
-96.89869012793028
 10
87.79739283697106
 20
0.0
 30
-97.02536177084689
 10
76.94605368696809
 20
0.0
 30
-97.17480421051994
 10
67.83801008839603
 20
0.0
 30
-97.27658458831758
 10
60.70287560576687
 20
0.0
 30
-97.33939670388281
 10
58.5002440230436
 20
0.0
 30
-97.35732510502099
  0
SPLINE
  5
C3
330
1F
100
AcDbEntity
  8
SX$10
  6
Continuous
 62
    18
370
    35
100
AcDbSpline
210
0.0
220
-1.0
230
0.0
 70
     8
 71
     3
 72
     9
 73
     5
 74
     0
 42
0.000000001
 43
0.0000000001
 40
0.0
 40
0.0
 40
0.0
 40
0.0
 40
0.4999237133075337
 40
1.0
 40
1.0
 40
1.0
 40
1.0
 10
58.50000000000022
 20
0.0
 30
-97.35732576798496
 10
58.24517544841584
 20
0.0
 30
-97.35751410582326
 10
57.74595480896322
 20
0.0
 30
-97.566531662735
 10
57.51380710463776
 20
0.0
 30
-98.05527598602744
 10
57.50154175366788
 20
0.0
 30
-98.30977065837416
  0
SPLINE
  5
C4
330
1F
100
AcDbEntity
  8
SX$10
  6
Continuous
 62
    18
370
    35
100
AcDbSpline
210
0.0
220
1.0
230
0.0
 70
     8
 71
     3
 72
     9
 73
     5
 74
     0
 42
0.000000001
 43
0.0000000001
 40
0.0
 40
0.0
 40
0.0
 40
0.0
 40
0.4995712815562585
 40
1.0
 40
1.0
 40
1.0
 40
1.0
 10
57.50154175320649
 20
0.0
 30
-98.30977033959131
 10
57.48551463961937
 20
0.0
 30
-98.62198630073244
 10
57.24860663058448
 20
0.0
 30
-99.22953999361718
 10
56.70891398190739
 20
0.0
 30
-99.5940749492235
 10
56.4082992719967
 20
0.0
 30
-99.67919737959598
  0
SPLINE
  5
C5
330
1F
100
AcDbEntity
  8
SX$10
  6
Continuous
 62
    18
370
    35
100
AcDbSpline
210
0.0
220
1.0
230
0.0
 70
     8
 71
     3
 72
     8
 73
     4
 74
     0
 42
0.000000001
 43
0.0000000001
 40
0.0
 40
0.0
 40
0.0
 40
0.0
 40
1.0
 40
1.0
 40
1.0
 40
1.0
 10
56.40829927244936
 20
0.0
 30
-99.67919768967347
 10
52.60666620281124
 20
0.0
 30
-100.7726282824919
 10
48.80383556648779
 20
0.0
 30
-101.8618935984228
 10
45.00000000000023
 20
0.0
 30
-102.9476366841863
  0
SPLINE
  5
C6
330
1F
100
AcDbEntity
  8
SX$10
  6
Continuous
 62
    18
370
    35
100
AcDbSpline
210
0.0
220
1.0
230
0.0
 70
     8
 71
     3
 72
     8
 73
     4
 74
     0
 42
0.000000001
 43
0.0000000001
 40
0.0
 40
0.0
 40
0.0
 40
0.0
 40
1.0
 40
1.0
 40
1.0
 40
1.0
 10
45.00000000000023
 20
0.0
 30
-101.9098226634822
 10
48.60657525084336
 20
0.0
 30
-100.8802709954546
 10
52.21224447620644
 20
0.0
 30
-99.84754424037678
 10
55.81684291679698
 20
0.0
 30
-98.8110922016963
  0
SPLINE
  5
C7
330
1F
100
AcDbEntity
  8
SX$10
  6
Continuous
 62
    18
370
    35
100
AcDbSpline
210
0.0
220
1.0
230
0.0
 70
     8
 71
     3
 72
     8
 73
     4
 74
     0
 42
0.000000001
 43
0.0000000001
 40
0.0
 40
0.0
 40
0.0
 40
0.0
 40
1.0
 40
1.0
 40
1.0
 40
1.0
 10
55.81684291677916
 20
0.0
 30
-98.81109218932878
 10
56.1778653156853
 20
0.0
 30
-98.70848099830313
 10
56.46631240717955
 20
0.0
 30
-98.38948222088897
 10
56.53147532750003
 20
0.0
 30
-98.0194783646718
  0
SPLINE
  5
C8
330
1F
100
AcDbEntity
  8
SX$10
  6
Continuous
 62
    18
370
    35
100
AcDbSpline
210
0.0
220
1.0
230
0.0
 70
     8
 71
     3
 72
     8
 73
     4
 74
     0
 42
0.000000001
 43
0.0000000001
 40
0.0
 40
0.0
 40
0.0
 40
0.0
 40
1.0
 40
1.0
 40
1.0
 40
1.0
 10
-55.81684291679653
 20
0.0
 30
-98.8110922016963
 10
-52.212244476206
 20
0.0
 30
-99.84754424037678
 10
-48.60657525084293
 20
0.0
 30
-100.8802709954546
 10
-44.99999999999978
 20
0.0
 30
-101.9098226634822
  0
SPLINE
  5
C9
330
1F
100
AcDbEntity
  8
SX$10
  6
Continuous
 62
    18
370
    35
100
AcDbSpline
210
0.0
220
1.0
230
0.0
 70
     8
 71
     3
 72
     8
 73
     4
 74
     0
 42
0.000000001
 43
0.0000000001
 40
0.0
 40
0.0
 40
0.0
 40
0.0
 40
1.0
 40
1.0
 40
1.0
 40
1.0
 10
-44.99999999999978
 20
0.0
 30
-102.9476366841863
 10
-48.80383556648736
 20
0.0
 30
-101.8618935984228
 10
-52.60666620281079
 20
0.0
 30
-100.7726282824919
 10
-56.40829927244892
 20
0.0
 30
-99.67919768967347
  0
SPLINE
  5
CA
102
{ACAD_REACTORS
330
1B5
102
}
330
1F
100
AcDbEntity
  8
SX$10
  6
Continuous
 62
    18
370
    35
100
AcDbSpline
210
0.0
220
-1.0
230
0.0
 70
     8
 71
     3
 72
     9
 73
     5
 74
     0
 42
0.000000001
 43
0.0000000001
 40
0.0
 40
0.0
 40
0.0
 40
0.0
 40
0.5004287184437415
 40
1.0
 40
1.0
 40
1.0
 40
1.0
 10
-56.40829927244889
 20
0.0
 30
-99.67919768967347
 10
-56.70891399317323
 20
0.0
 30
-99.59407526516819
 10
-57.24860662999083
 20
0.0
 30
-99.22954031241834
 10
-57.48551464590885
 20
0.0
 30
-98.62198663220016
 10
-57.50154175366744
 20
0.0
 30
-98.30977065837416
  0
SPLINE
  5
CB
330
1F
100
AcDbEntity
  8
SX$10
  6
Continuous
 62
    18
370
    35
100
AcDbSpline
210
0.0
220
-1.0
230
0.0
 70
     8
 71
     3
 72
     9
 73
     5
 74
     0
 42
0.000000001
 43
0.0000000001
 40
0.0
 40
0.0
 40
0.0
 40
0.0
 40
0.5000762866924664
 40
1.0
 40
1.0
 40
1.0
 40
1.0
 10
-57.50154175366744
 20
0.0
 30
-98.30977065837416
 10
-57.51380710463733
 20
0.0
 30
-98.05527598602744
 10
-57.74595480896277
 20
0.0
 30
-97.566531662735
 10
-58.24517544841539
 20
0.0
 30
-97.35751410582326
 10
-58.49999999999977
 20
0.0
 30
-97.35732576798496
  0
SPLINE
  5
CC
330
1F
100
AcDbEntity
  8
SX$10
  6
Continuous
 62
    18
370
    35
100
AcDbSpline
210
0.0
220
-1.0
230
0.0
 70
     8
 71
     3
 72
    33
 73
    29
 74
     0
 42
0.000000001
 43
0.0000000001
 40
0.0
 40
0.0
 40
0.0
 40
0.0
 40
0.0174125987555433
 40
0.0564045822062285
 40
0.0720016662723914
 40
0.1031964378975429
 40
0.1187941552360368
 40
0.1421911655547467
 40
0.1655886778077162
 40
0.1811872617321483
 40
0.1967859925585424
 40
0.2201842319555463
 40
0.2279836451874308
 40
0.2513817266911233
 40
0.2669801927274755
 40
0.2747793126408294
 40
0.2825783422918448
 40
0.2981760943841316
 40
0.3059748037023344
 40
0.3215718767048822
 40
0.3371685136815118
 40
0.3449666932893498
 40
0.3605628594666703
 40
0.3683608879389725
 40
0.3761589042811627
 40
0.3917549317110651
 40
0.4385430138871368
 40
1.0
 40
1.0
 40
1.0
 40
1.0
 10
-58.49999989160983
 20
0.0
 30
-97.35731282856001
 10
-60.70271272024554
 20
0.0
 30
-97.339396732539
 10
-67.83792699215938
 20
0.0
 30
-97.27655470505032
 10
-76.9460536869675
 20
0.0
 30
-97.17480421052043
 10
-87.7973928369724
 20
0.0
 30
-97.02536177084623
 10
-95.68929432763939
 20
0.0
 30
-96.89869012792997
 10
-104.5676447603571
 20
0.0
 30
-96.73617043432283
 10
-112.4595625448969
 20
0.0
 30
-96.57754626159914
 10
-120.3514162952645
 20
0.0
 30
-96.40410035589977
 10
-127.2567895770587
 20
0.0
 30
-96.24428081209608
 10
-134.1621880322582
 20
0.0
 30
-96.08010371603251
 10
-140.081081314662
 20
0.0
 30
-95.93745187309304
 10
-146.9864615993535
 20
0.0
 30
-95.7742607583161
 10
-152.90533760451
 20
0.0
 30
-95.63887854511701
 10
-158.8242812929408
 20
0.0
 30
-95.51685677090914
 10
-162.7702416282957
 20
0.0
 30
-95.44338508659757
 10
-166.7161576673055
 20
0.0
 30
-95.37611298505178
 10
-170.6620985129132
 20
0.0
 30
-95.31967531093801
 10
-175.5945285404356
 20
0.0
 30
-95.2664843236484
 10
-180.5269292598159
 20
0.0
 30
-95.23166232160949
 10
-185.4594061665597
 20
0.0
 30
-95.2331708657422
 10
-190.3918548041064
 20
0.0
 30
-95.23690968565022
 10
-194.3378171982222
 20
0.0
 30
-95.23559308287093
 10
-198.2837809802103
 20
0.0
 30
-95.23551480417777
 10
-202.2297295583262
 20
0.0
 30
-95.2355357787735
 10
-211.1081081466698
 20
0.0
 30
-95.2355293588467
 10
-290.0270270267732
 20
0.0
 30
-95.23552719909073
 10
-366.9729729730511
 20
0.0
 30
-95.23552721078703
 10
-437.999999999995
 20
0.0
 30
-95.23552721078943
  0
SPLINE
  5
CD
330
1F
100
AcDbEntity
  8
SX$10
  6
Continuous
 62
    18
370
    35
100
AcDbSpline
210
0.0
220
-1.0
230
0.0
 70
     8
 71
     3
 72
    33
 73
    29
 74
     0
 42
0.000000001
 43
0.0000000001
 40
0.0
 40
0.0
 40
0.0
 40
0.0
 40
0.56145698726405
 40
0.6082450695360542
 40
0.6238410969976862
 40
0.6316391133506162
 40
0.6394371418216869
 40
0.6550333079376662
 40
0.6628314874843793
 40
0.6784281242885278
 40
0.6940251970719261
 40
0.7018239062708687
 40
0.7174216581193884
 40
0.7252206876507121
 40
0.7330198074485497
 40
0.7486182732725825
 40
0.7720163545200283
 40
0.7798157676853933
 40
0.803214006940699
 40
0.8188127377181242
 40
0.8344113216255014
 40
0.8578088339014879
 40
0.881205844285375
 40
0.896803561682181
 40
0.9279983334403047
 40
0.9435954175745671
 40
0.9825874011826596
 40
1.0
 40
1.0
 40
1.0
 40
1.0
 10
-437.9999999999954
 20
0.0
 30
-94.2355272107894
 10
-366.9729729729341
 20
0.0
 30
-94.23552721079257
 10
-290.0270270268142
 20
0.0
 30
-94.2355271990942
 10
-211.1081081465685
 20
0.0
 30
-94.23552935864981
 10
-202.2297295585153
 20
0.0
 30
-94.23553577798592
 10
-198.2837809845914
 20
0.0
 30
-94.2355148053185
 10
-194.3378172100675
 20
0.0
 30
-94.23559307681376
 10
-190.391854815844
 20
0.0
 30
-94.23690995178858
 10
-185.4594061761477
 20
0.0
 30
-94.23317135038211
 10
-180.5269292701538
 20
0.0
 30
-94.23165348254642
 10
-175.5945285440815
 20
0.0
 30
-94.26645995551391
 10
-170.6620985138626
 20
0.0
 30
-94.31963780690916
 10
-166.7161576664139
 20
0.0
 30
-94.37606623893438
 10
-162.7702416269628
 20
0.0
 30
-94.44333021594416
 10
-158.8242812893325
 20
0.0
 30
-94.51679449637383
 10
-152.9053375933685
 20
0.0
 30
-94.63880671717814
 10
-146.9864615903415
 20
0.0
 30
-94.7741817341313
 10
-140.0810813054758
 20
0.0
 30
-94.93736634828886
 10
-134.1621880201316
 20
0.0
 30
-95.08001415989978
 10
-127.2567895699634
 20
0.0
 30
-95.24418844824663
 10
-120.3514162866547
 20
0.0
 30
-95.40400652437975
 10
-112.4595625363391
 20
0.0
 30
-95.57745242429584
 10
-104.5676447564534
 20
0.0
 30
-95.73607818741554
 10
-95.68929432507835
 20
0.0
 30
-95.89860081319745
 10
-87.79739283648213
 20
0.0
 30
-96.0252760452815
 10
-76.9460536889277
 20
0.0
 30
-96.17472418288276
 10
-67.83792699512917
 20
0.0
 30
-96.27647995805644
 10
-60.70271272051357
 20
0.0
 30
-96.33932601520003
 10
-58.49999989143025
 20
0.0
 30
-96.35724333239095
  0
SPLINE
  5
CE
330
1F
100
AcDbEntity
  8
SX$10
  6
Continuous
 62
    18
370
    35
100
AcDbSpline
210
0.0
220
-1.0
230
0.0
 70
     8
 71
     3
 72
     9
 73
     5
 74
     0
 42
0.000000001
 43
0.0000000001
 40
0.0
 40
0.0
 40
0.0
 40
0.0
 40
0.4996810517985346
 40
1.0
 40
1.0
 40
1.0
 40
1.0
 10
-58.49999999999977
 20
0.0
 30
-96.3572562937078
 10
-58.03192844677108
 20
0.0
 30
-96.3583240016784
 10
-57.11074084087505
 20
0.0
 30
-96.70957197656614
 10
-56.61139822585955
 20
0.0
 30
-97.55851303507289
 10
-56.53147532751768
 20
0.0
 30
-98.01947837726856
  0
SPLINE
  5
CF
330
1F
100
AcDbEntity
  8
SX$10
  6
Continuous
 62
    18
370
    35
100
AcDbSpline
210
0.0
220
-1.0
230
0.0
 70
     8
 71
     3
 72
     8
 73
     4
 74
     0
 42
0.000000001
 43
0.0000000001
 40
0.0
 40
0.0
 40
0.0
 40
0.0
 40
1.0
 40
1.0
 40
1.0
 40
1.0
 10
-56.5314753275171
 20
0.0
 30
-98.01947837687509
 10
-56.46631240734038
 20
0.0
 30
-98.38948223354217
 10
-56.17786531612455
 20
0.0
 30
-98.70848101050612
 10
-55.81684291679603
 20
0.0
 30
-98.81109220131003
  0
SPLINE
  5
D0
330
1F
100
AcDbEntity
  8
SX$10
  6
Continuous
 62
   252
 60
     1
370
    35
100
AcDbSpline
210
0.0
220
1.0
230
0.0
 70
     8
 71
     3
 72
     8
 73
     4
 74
     0
 42
0.000000001
 43
0.0000000001
 40
0.0
 40
0.0
 40
0.0
 40
0.0
 40
1.0
 40
1.0
 40
1.0
 40
1.0
 10
55.81684291677916
 20
0.0
 30
-98.81109218932878
 10
56.1778653156853
 20
0.0
 30
-98.70848099830313
 10
56.46631240717955
 20
0.0
 30
-98.38948222088897
 10
56.53147532750003
 20
0.0
 30
-98.0194783646718
  0
SPLINE
  5
D1
330
1F
100
AcDbEntity
  8
SX$10
  6
Continuous
 62
   252
 60
     1
370
    35
100
AcDbSpline
210
0.0
220
1.0
230
0.0
 70
     8
 71
     3
 72
     8
 73
     4
 74
     0
 42
0.000000001
 43
0.0000000001
 40
0.0
 40
0.0
 40
0.0
 40
0.0
 40
1.0
 40
1.0
 40
1.0
 40
1.0
 10
45.00000000000023
 20
0.0
 30
-101.9098226634822
 10
48.60657525084336
 20
0.0
 30
-100.8802709954546
 10
52.21224447620644
 20
0.0
 30
-99.84754424037678
 10
55.81684291679698
 20
0.0
 30
-98.8110922016963
  0
SPLINE
  5
D2
330
1F
100
AcDbEntity
  8
SX$10
  6
Continuous
 62
   252
 60
     1
370
    35
100
AcDbSpline
210
0.0
220
1.0
230
0.0
 70
     8
 71
     3
 72
     8
 73
     4
 74
     0
 42
0.000000001
 43
0.0000000001
 40
0.0
 40
0.0
 40
0.0
 40
0.0
 40
1.0
 40
1.0
 40
1.0
 40
1.0
 10
56.40829927244936
 20
0.0
 30
-99.67919768967347
 10
52.60666620281124
 20
0.0
 30
-100.7726282824919
 10
48.80383556648779
 20
0.0
 30
-101.8618935984228
 10
45.00000000000023
 20
0.0
 30
-102.9476366841863
  0
SPLINE
  5
D3
330
1F
100
AcDbEntity
  8
SX$10
  6
Continuous
 62
   252
 60
     1
370
    35
100
AcDbSpline
210
0.0
220
1.0
230
0.0
 70
     8
 71
     3
 72
     9
 73
     5
 74
     0
 42
0.000000001
 43
0.0000000001
 40
0.0
 40
0.0
 40
0.0
 40
0.0
 40
0.4995712815562585
 40
1.0
 40
1.0
 40
1.0
 40
1.0
 10
57.50154175320649
 20
0.0
 30
-98.30977033959131
 10
57.48551463961937
 20
0.0
 30
-98.62198630073244
 10
57.24860663058448
 20
0.0
 30
-99.22953999361718
 10
56.70891398190739
 20
0.0
 30
-99.5940749492235
 10
56.4082992719967
 20
0.0
 30
-99.67919737959598
  0
SPLINE
  5
D4
330
1F
100
AcDbEntity
  8
SX$10
  6
Continuous
 62
   252
 60
     1
370
    35
100
AcDbSpline
210
0.0
220
-1.0
230
0.0
 70
     8
 71
     3
 72
     9
 73
     5
 74
     0
 42
0.000000001
 43
0.0000000001
 40
0.0
 40
0.0
 40
0.0
 40
0.0
 40
0.4999237133075337
 40
1.0
 40
1.0
 40
1.0
 40
1.0
 10
58.50000000000022
 20
0.0
 30
-97.35732576798496
 10
58.24517544841584
 20
0.0
 30
-97.35751410582326
 10
57.74595480896322
 20
0.0
 30
-97.566531662735
 10
57.51380710463776
 20
0.0
 30
-98.05527598602744
 10
57.50154175366788
 20
0.0
 30
-98.30977065837416
  0
SPLINE
  5
D5
330
1F
100
AcDbEntity
  8
SX$10
  6
Continuous
 62
   252
 60
     1
370
    35
100
AcDbSpline
210
0.0
220
-1.0
230
0.0
 70
     8
 71
     3
 72
    33
 73
    29
 74
     0
 42
0.000000001
 43
0.0000000001
 40
0.0
 40
0.0
 40
0.0
 40
0.0
 40
0.5770533868959599
 40
0.6082454618633095
 40
0.6238414993848618
 40
0.6316395207728797
 40
0.6394375542910166
 40
0.6550337305600781
 40
0.6628319152138489
 40
0.6784285622825227
 40
0.6940256453773983
 40
0.701824359741876
 40
0.7174221219269299
 40
0.7252211566244277
 40
0.7330202815843224
 40
0.7486187577139038
 40
0.7720168543576869
 40
0.7798162726363022
 40
0.803214527173499
 40
0.8188132680932927
 40
0.8344118621110295
 40
0.8578093895037208
 40
0.881206414961829
 40
0.8968041423930666
 40
0.9279989342032766
 40
0.9435960283617736
 40
0.9825880370428259
 40
1.0
 40
1.0
 40
1.0
 40
1.0
 10
437.9999999999999
 20
0.0
 30
-95.23552721078941
 10
365.0000000000146
 20
0.0
 30
-95.23552721079723
 10
288.054054050742
 20
0.0
 30
-95.23552704667124
 10
209.1351351583483
 20
0.0
 30
-95.23552859829165
 10
202.2297295583284
 20
0.0
 30
-95.23553577877347
 10
198.2837809802105
 20
0.0
 30
-95.23551480417767
 10
194.337817198224
 20
0.0
 30
-95.23559308287095
 10
190.3918548041079
 20
0.0
 30
-95.2369096856502
 10
185.4594061665607
 20
0.0
 30
-95.2331708657422
 10
180.5269292598177
 20
0.0
 30
-95.23166232160963
 10
175.5945285404357
 20
0.0
 30
-95.26648432364814
 10
170.662098512914
 20
0.0
 30
-95.31967531093814
 10
166.7161576673054
 20
0.0
 30
-95.37611298505176
 10
162.7702416282968
 20
0.0
 30
-95.44338508659762
 10
158.8242812929395
 20
0.0
 30
-95.51685677090924
 10
152.9053376045085
 20
0.0
 30
-95.63887854511682
 10
146.9864615993542
 20
0.0
 30
-95.77426075831615
 10
140.0810813146614
 20
0.0
 30
-95.93745187309287
 10
134.1621880322598
 20
0.0
 30
-96.08010371603346
 10
127.2567895770576
 20
0.0
 30
-96.24428081209581
 10
120.3514162952631
 20
0.0
 30
-96.40410035590078
 10
112.4595625448973
 20
0.0
 30
-96.57754626159777
 10
104.5676447603557
 20
0.0
 30
-96.73617043432316
 10
95.68929432763751
 20
0.0
 30
-96.89869012793028
 10
87.79739283697106
 20
0.0
 30
-97.02536177084689
 10
76.94605368696809
 20
0.0
 30
-97.17480421051994
 10
67.83801008839603
 20
0.0
 30
-97.27658458831758
 10
60.70287560576687
 20
0.0
 30
-97.33939670388281
 10
58.5002440230436
 20
0.0
 30
-97.35732510502099
  0
SPLINE
  5
D6
330
1F
100
AcDbEntity
  8
SX$10
  6
Continuous
 62
   252
 60
     1
370
    35
100
AcDbSpline
210
0.0
220
-1.0
230
0.0
 70
     8
 71
     3
 72
    33
 73
    29
 74
     0
 42
0.000000001
 43
0.0000000001
 40
0.0
 40
0.0
 40
0.0
 40
0.0
 40
0.0174119629403464
 40
0.0564039717819254
 40
0.0720010660097697
 40
0.1031958579554486
 40
0.1187935854462472
 40
0.1421906109714037
 40
0.1655881383889845
 40
0.1811867323909148
 40
0.1967854732629886
 40
0.2201837276603589
 40
0.227983145873079
 40
0.2513812422624866
 40
0.2669797181809961
 40
0.2747788430259992
 40
0.2825778776044287
 40
0.2981756395469634
 40
0.3059743537928061
 40
0.3215714366697798
 40
0.3371680835672214
 40
0.3449662681604907
 40
0.3605624443694586
 40
0.3683604778869882
 40
0.3761584992863689
 40
0.3917545368408994
 40
0.4385426493915995
 40
1.0
 40
1.0
 40
1.0
 40
1.0
 10
58.50024405334223
 20
0.0
 30
-96.35725562382864
 10
60.70287562635911
 20
0.0
 30
-96.33932599614987
 10
67.8380101014871
 20
0.0
 30
-96.27650982795399
 10
76.94605368892748
 20
0.0
 30
-96.17472418288281
 10
87.79739283648102
 20
0.0
 30
-96.02527604528161
 10
95.68929432507753
 20
0.0
 30
-95.89860081319722
 10
104.5676447564537
 20
0.0
 30
-95.73607818741556
 10
112.4595625363391
 20
0.0
 30
-95.577452424296
 10
120.3514162866546
 20
0.0
 30
-95.40400652437985
 10
127.2567895699633
 20
0.0
 30
-95.24418844824697
 10
134.1621880201318
 20
0.0
 30
-95.0800141598993
 10
140.0810813054748
 20
0.0
 30
-94.93736634828892
 10
146.9864615903418
 20
0.0
 30
-94.7741817341313
 10
152.9053375933687
 20
0.0
 30
-94.63880671717844
 10
158.8242812893318
 20
0.0
 30
-94.51679449637398
 10
162.7702416269637
 20
0.0
 30
-94.44333021594416
 10
166.7161576664128
 20
0.0
 30
-94.3760662389345
 10
170.6620985138618
 20
0.0
 30
-94.31963780690911
 10
175.5945285440829
 20
0.0
 30
-94.26645995551382
 10
180.5269292701552
 20
0.0
 30
-94.23165348254619
 10
185.4594061761483
 20
0.0
 30
-94.23317135038225
 10
190.3918548158453
 20
0.0
 30
-94.23690995178842
 10
194.3378172100681
 20
0.0
 30
-94.23559307681379
 10
198.2837809845927
 20
0.0
 30
-94.23551480531852
 10
202.2297295585161
 20
0.0
 30
-94.235535777986
 10
211.1081081465685
 20
0.0
 30
-94.23552935864946
 10
290.0270270267876
 20
0.0
 30
-94.2355271990907
 10
366.9729729729829
 20
0.0
 30
-94.23552721079122
 10
438.0000000000002
 20
0.0
 30
-94.2355272107894
  0
SPLINE
  5
D7
330
1F
100
AcDbEntity
  8
SX$10
  6
Continuous
 62
   252
 60
     1
370
    35
100
AcDbSpline
210
0.0
220
-1.0
230
0.0
 70
     8
 71
     3
 72
     9
 73
     5
 74
     0
 42
0.000000001
 43
0.0000000001
 40
0.0
 40
0.0
 40
0.0
 40
0.0
 40
0.5003189482014654
 40
1.0
 40
1.0
 40
1.0
 40
1.0
 10
56.53147532751813
 20
0.0
 30
-98.01947837726856
 10
56.61139822585999
 20
0.0
 30
-97.55851303507289
 10
57.11074084087549
 20
0.0
 30
-96.70957197656614
 10
58.03192844677152
 20
0.0
 30
-96.35832400167844
 10
58.50000000000022
 20
0.0
 30
-96.35725629370785
  0
SPLINE
  5
D8
330
1F
100
AcDbEntity
  8
SX$10
  6
Continuous
 62
   252
 60
     1
370
    35
100
AcDbSpline
210
0.0
220
-1.0
230
0.0
 70
     8
 71
     3
 72
     8
 73
     4
 74
     0
 42
0.000000001
 43
0.0000000001
 40
0.0
 40
0.0
 40
0.0
 40
0.0
 40
1.0
 40
1.0
 40
1.0
 40
1.0
 10
-56.5314753275171
 20
0.0
 30
-98.01947837687509
 10
-56.46631240734038
 20
0.0
 30
-98.38948223354217
 10
-56.17786531612455
 20
0.0
 30
-98.70848101050612
 10
-55.81684291679603
 20
0.0
 30
-98.81109220131003
  0
SPLINE
  5
D9
330
1F
100
AcDbEntity
  8
SX$10
  6
Continuous
 62
   252
 60
     1
370
    35
100
AcDbSpline
210
0.0
220
-1.0
230
0.0
 70
     8
 71
     3
 72
     9
 73
     5
 74
     0
 42
0.000000001
 43
0.0000000001
 40
0.0
 40
0.0
 40
0.0
 40
0.0
 40
0.4996810517985346
 40
1.0
 40
1.0
 40
1.0
 40
1.0
 10
-58.49999999999977
 20
0.0
 30
-96.3572562937078
 10
-58.03192844677108
 20
0.0
 30
-96.3583240016784
 10
-57.11074084087505
 20
0.0
 30
-96.70957197656614
 10
-56.61139822585955
 20
0.0
 30
-97.55851303507289
 10
-56.53147532751768
 20
0.0
 30
-98.01947837726856
  0
SPLINE
  5
DA
330
1F
100
AcDbEntity
  8
SX$10
  6
Continuous
 62
   252
 60
     1
370
    35
100
AcDbSpline
210
0.0
220
-1.0
230
0.0
 70
     8
 71
     3
 72
    33
 73
    29
 74
     0
 42
0.000000001
 43
0.0000000001
 40
0.0
 40
0.0
 40
0.0
 40
0.0
 40
0.56145698726405
 40
0.6082450695360542
 40
0.6238410969976862
 40
0.6316391133506162
 40
0.6394371418216869
 40
0.6550333079376662
 40
0.6628314874843793
 40
0.6784281242885278
 40
0.6940251970719261
 40
0.7018239062708687
 40
0.7174216581193884
 40
0.7252206876507121
 40
0.7330198074485497
 40
0.7486182732725825
 40
0.7720163545200283
 40
0.7798157676853933
 40
0.803214006940699
 40
0.8188127377181242
 40
0.8344113216255014
 40
0.8578088339014879
 40
0.881205844285375
 40
0.896803561682181
 40
0.9279983334403047
 40
0.9435954175745671
 40
0.9825874011826596
 40
1.0
 40
1.0
 40
1.0
 40
1.0
 10
-437.9999999999954
 20
0.0
 30
-94.2355272107894
 10
-366.9729729729341
 20
0.0
 30
-94.23552721079257
 10
-290.0270270268142
 20
0.0
 30
-94.2355271990942
 10
-211.1081081465685
 20
0.0
 30
-94.23552935864981
 10
-202.2297295585153
 20
0.0
 30
-94.23553577798592
 10
-198.2837809845914
 20
0.0
 30
-94.2355148053185
 10
-194.3378172100675
 20
0.0
 30
-94.23559307681376
 10
-190.391854815844
 20
0.0
 30
-94.23690995178858
 10
-185.4594061761477
 20
0.0
 30
-94.23317135038211
 10
-180.5269292701538
 20
0.0
 30
-94.23165348254642
 10
-175.5945285440815
 20
0.0
 30
-94.26645995551391
 10
-170.6620985138626
 20
0.0
 30
-94.31963780690916
 10
-166.7161576664139
 20
0.0
 30
-94.37606623893438
 10
-162.7702416269628
 20
0.0
 30
-94.44333021594416
 10
-158.8242812893325
 20
0.0
 30
-94.51679449637383
 10
-152.9053375933685
 20
0.0
 30
-94.63880671717814
 10
-146.9864615903415
 20
0.0
 30
-94.7741817341313
 10
-140.0810813054758
 20
0.0
 30
-94.93736634828886
 10
-134.1621880201316
 20
0.0
 30
-95.08001415989978
 10
-127.2567895699634
 20
0.0
 30
-95.24418844824663
 10
-120.3514162866547
 20
0.0
 30
-95.40400652437975
 10
-112.4595625363391
 20
0.0
 30
-95.57745242429584
 10
-104.5676447564534
 20
0.0
 30
-95.73607818741554
 10
-95.68929432507835
 20
0.0
 30
-95.89860081319745
 10
-87.79739283648213
 20
0.0
 30
-96.0252760452815
 10
-76.9460536889277
 20
0.0
 30
-96.17472418288276
 10
-67.83792699512917
 20
0.0
 30
-96.27647995805644
 10
-60.70271272051357
 20
0.0
 30
-96.33932601520003
 10
-58.49999989143025
 20
0.0
 30
-96.35724333239095
  0
SPLINE
  5
DB
330
1F
100
AcDbEntity
  8
SX$10
  6
Continuous
 62
   252
 60
     1
370
    35
100
AcDbSpline
210
0.0
220
-1.0
230
0.0
 70
     8
 71
     3
 72
    33
 73
    29
 74
     0
 42
0.000000001
 43
0.0000000001
 40
0.0
 40
0.0
 40
0.0
 40
0.0
 40
0.0174125987555433
 40
0.0564045822062285
 40
0.0720016662723914
 40
0.1031964378975429
 40
0.1187941552360368
 40
0.1421911655547467
 40
0.1655886778077162
 40
0.1811872617321483
 40
0.1967859925585424
 40
0.2201842319555463
 40
0.2279836451874308
 40
0.2513817266911233
 40
0.2669801927274755
 40
0.2747793126408294
 40
0.2825783422918448
 40
0.2981760943841316
 40
0.3059748037023344
 40
0.3215718767048822
 40
0.3371685136815118
 40
0.3449666932893498
 40
0.3605628594666703
 40
0.3683608879389725
 40
0.3761589042811627
 40
0.3917549317110651
 40
0.4385430138871368
 40
1.0
 40
1.0
 40
1.0
 40
1.0
 10
-58.49999989160983
 20
0.0
 30
-97.35731282856001
 10
-60.70271272024554
 20
0.0
 30
-97.339396732539
 10
-67.83792699215938
 20
0.0
 30
-97.27655470505032
 10
-76.9460536869675
 20
0.0
 30
-97.17480421052043
 10
-87.7973928369724
 20
0.0
 30
-97.02536177084623
 10
-95.68929432763939
 20
0.0
 30
-96.89869012792997
 10
-104.5676447603571
 20
0.0
 30
-96.73617043432283
 10
-112.4595625448969
 20
0.0
 30
-96.57754626159914
 10
-120.3514162952645
 20
0.0
 30
-96.40410035589977
 10
-127.2567895770587
 20
0.0
 30
-96.24428081209608
 10
-134.1621880322582
 20
0.0
 30
-96.08010371603251
 10
-140.081081314662
 20
0.0
 30
-95.93745187309304
 10
-146.9864615993535
 20
0.0
 30
-95.7742607583161
 10
-152.90533760451
 20
0.0
 30
-95.63887854511701
 10
-158.8242812929408
 20
0.0
 30
-95.51685677090914
 10
-162.7702416282957
 20
0.0
 30
-95.44338508659757
 10
-166.7161576673055
 20
0.0
 30
-95.37611298505178
 10
-170.6620985129132
 20
0.0
 30
-95.31967531093801
 10
-175.5945285404356
 20
0.0
 30
-95.2664843236484
 10
-180.5269292598159
 20
0.0
 30
-95.23166232160949
 10
-185.4594061665597
 20
0.0
 30
-95.2331708657422
 10
-190.3918548041064
 20
0.0
 30
-95.23690968565022
 10
-194.3378171982222
 20
0.0
 30
-95.23559308287093
 10
-198.2837809802103
 20
0.0
 30
-95.23551480417777
 10
-202.2297295583262
 20
0.0
 30
-95.2355357787735
 10
-211.1081081466698
 20
0.0
 30
-95.2355293588467
 10
-290.0270270267732
 20
0.0
 30
-95.23552719909073
 10
-366.9729729730511
 20
0.0
 30
-95.23552721078703
 10
-437.999999999995
 20
0.0
 30
-95.23552721078943
  0
SPLINE
  5
DC
330
1F
100
AcDbEntity
  8
SX$10
  6
Continuous
 62
   252
 60
     1
370
    35
100
AcDbSpline
210
0.0
220
-1.0
230
0.0
 70
     8
 71
     3
 72
     9
 73
     5
 74
     0
 42
0.000000001
 43
0.0000000001
 40
0.0
 40
0.0
 40
0.0
 40
0.0
 40
0.5000762866924664
 40
1.0
 40
1.0
 40
1.0
 40
1.0
 10
-57.50154175366744
 20
0.0
 30
-98.30977065837416
 10
-57.51380710463733
 20
0.0
 30
-98.05527598602744
 10
-57.74595480896277
 20
0.0
 30
-97.566531662735
 10
-58.24517544841539
 20
0.0
 30
-97.35751410582326
 10
-58.49999999999977
 20
0.0
 30
-97.35732576798496
  0
SPLINE
  5
DD
330
1F
100
AcDbEntity
  8
SX$10
  6
Continuous
 62
   252
 60
     1
370
    35
100
AcDbSpline
210
0.0
220
-1.0
230
0.0
 70
     8
 71
     3
 72
     9
 73
     5
 74
     0
 42
0.000000001
 43
0.0000000001
 40
0.0
 40
0.0
 40
0.0
 40
0.0
 40
0.5004287184437415
 40
1.0
 40
1.0
 40
1.0
 40
1.0
 10
-56.40829927244889
 20
0.0
 30
-99.67919768967347
 10
-56.70891399317323
 20
0.0
 30
-99.59407526516819
 10
-57.24860662999083
 20
0.0
 30
-99.22954031241834
 10
-57.48551464590885
 20
0.0
 30
-98.62198663220016
 10
-57.50154175366744
 20
0.0
 30
-98.30977065837416
  0
SPLINE
  5
DE
330
1F
100
AcDbEntity
  8
SX$10
  6
Continuous
 62
   252
 60
     1
370
    35
100
AcDbSpline
210
0.0
220
1.0
230
0.0
 70
     8
 71
     3
 72
     8
 73
     4
 74
     0
 42
0.000000001
 43
0.0000000001
 40
0.0
 40
0.0
 40
0.0
 40
0.0
 40
1.0
 40
1.0
 40
1.0
 40
1.0
 10
-44.99999999999978
 20
0.0
 30
-102.9476366841863
 10
-48.80383556648736
 20
0.0
 30
-101.8618935984228
 10
-52.60666620281079
 20
0.0
 30
-100.7726282824919
 10
-56.40829927244892
 20
0.0
 30
-99.67919768967347
  0
SPLINE
  5
DF
330
1F
100
AcDbEntity
  8
SX$10
  6
Continuous
 62
   252
 60
     1
370
    35
100
AcDbSpline
210
0.0
220
1.0
230
0.0
 70
     8
 71
     3
 72
     8
 73
     4
 74
     0
 42
0.000000001
 43
0.0000000001
 40
0.0
 40
0.0
 40
0.0
 40
0.0
 40
1.0
 40
1.0
 40
1.0
 40
1.0
 10
-55.81684291679653
 20
0.0
 30
-98.8110922016963
 10
-52.212244476206
 20
0.0
 30
-99.84754424037678
 10
-48.60657525084293
 20
0.0
 30
-100.8802709954546
 10
-44.99999999999978
 20
0.0
 30
-101.9098226634822
  0
LINE
  5
E0
102
{ACAD_REACTORS
330
106
102
}
330
1F
100
AcDbEntity
  8
SX$10
  6
Continuous
 62
   162
 60
     1
370
    70
100
AcDbLine
 10
45.0
 20
0.0
 30
-102.947637
 11
45.0
 21
0.0
 31
-101.909823
  0
SPLINE
  5
E1
102
{ACAD_REACTORS
330
106
102
}
330
1F
100
AcDbEntity
  8
SX$10
  6
Continuous
 62
   162
 60
     1
370
    70
100
AcDbSpline
210
0.0
220
1.0
230
0.0
 70
     8
 71
     3
 72
     8
 73
     4
 74
     0
 42
0.000000001
 43
0.0000000001
 40
0.0
 40
0.0
 40
0.0
 40
0.0
 40
1.0
 40
1.0
 40
1.0
 40
1.0
 10
56.40912777703163
 20
0.0
 30
-99.68007812863858
 10
52.60666620281124
 20
0.0
 30
-100.7726282824919
 10
48.80383556648779
 20
0.0
 30
-101.8618935984228
 10
45.00000000000023
 20
0.0
 30
-102.9476366841863
  0
SPLINE
  5
E2
102
{ACAD_REACTORS
330
106
102
}
330
1F
100
AcDbEntity
  8
SX$10
  6
Continuous
 62
   162
 60
     1
370
    70
100
AcDbSpline
210
0.0
220
1.0
230
0.0
 70
     8
 71
     3
 72
     9
 73
     5
 74
     0
 42
0.000000001
 43
0.0000000001
 40
0.0
 40
0.0
 40
0.0
 40
0.0
 40
0.4997305048460907
 40
1.0
 40
1.0
 40
1.0
 40
1.0
 10
57.50122419960431
 20
0.0
 30
-98.3093761663456
 10
57.48551463961937
 20
0.0
 30
-98.62198630073244
 10
57.24868211381438
 20
0.0
 30
-99.22934641588519
 10
56.70925786309068
 20
0.0
 30
-99.5938426295285
 10
56.40912777703163
 20
0.0
 30
-99.68007812863858
  0
SPLINE
  5
E3
102
{ACAD_REACTORS
330
106
102
}
330
1F
100
AcDbEntity
  8
SX$10
  6
Continuous
 62
   162
 60
     1
370
    70
100
AcDbSpline
210
0.0
220
-1.0
230
0.0
 70
     8
 71
     3
 72
     9
 73
     5
 74
     0
 42
0.000000001
 43
0.0000000001
 40
0.0
 40
0.0
 40
0.0
 40
0.0
 40
0.5001481491586437
 40
1.0
 40
1.0
 40
1.0
 40
1.0
 10
58.5000128436406
 20
0.0
 30
-97.35563552372491
 10
58.24517544841584
 20
0.0
 30
-97.35751410582326
 10
57.74617882860479
 20
0.0
 30
-97.56643786845952
 10
57.51401550575473
 20
0.0
 30
-98.05483740532976
 10
57.50122419960431
 20
0.0
 30
-98.3093761663456
  0
SPLINE
  5
E4
102
{ACAD_REACTORS
330
106
102
}
330
1F
100
AcDbEntity
  8
SX$10
  6
Continuous
 62
   162
 60
     1
370
    70
100
AcDbSpline
210
0.0
220
-1.0
230
0.0
 70
     8
 71
     3
 72
    33
 73
    29
 74
     0
 42
0.000000001
 43
0.0000000001
 40
0.0
 40
0.0
 40
0.0
 40
0.0
 40
0.5770533868959599
 40
0.6082454618633095
 40
0.6238414993848618
 40
0.6316395207728797
 40
0.6394375542910166
 40
0.6550337305600781
 40
0.6628319152138489
 40
0.6784285622825227
 40
0.6940256453773983
 40
0.701824359741876
 40
0.7174221219269299
 40
0.7252211566244277
 40
0.7330202815843224
 40
0.7486187577139038
 40
0.7720168543576869
 40
0.7798162726363022
 40
0.803214527173499
 40
0.8188132680932927
 40
0.8344118621110295
 40
0.8578093895037208
 40
0.881206414961829
 40
0.8968041423930666
 40
0.9279989342032766
 40
0.9435960283617736
 40
0.9825880370428259
 40
1.0
 40
1.0
 40
1.0
 40
1.0
 10
437.999999999997
 20
0.0
 30
-95.2355272107894
 10
365.0000000000146
 20
0.0
 30
-95.23552721079723
 10
288.054054050742
 20
0.0
 30
-95.23552704667124
 10
209.1351351583483
 20
0.0
 30
-95.23552859829165
 10
202.2297295583284
 20
0.0
 30
-95.23553577877347
 10
198.2837809802105
 20
0.0
 30
-95.23551480417768
 10
194.337817198224
 20
0.0
 30
-95.23559308287095
 10
190.3918548041079
 20
0.0
 30
-95.23690968565022
 10
185.4594061665607
 20
0.0
 30
-95.2331708657422
 10
180.5269292598177
 20
0.0
 30
-95.23166232160963
 10
175.5945285404357
 20
0.0
 30
-95.26648432364814
 10
170.662098512914
 20
0.0
 30
-95.31967531093814
 10
166.7161576673054
 20
0.0
 30
-95.37611298505176
 10
162.7702416282968
 20
0.0
 30
-95.44338508659763
 10
158.8242812929395
 20
0.0
 30
-95.51685677090926
 10
152.9053376045085
 20
0.0
 30
-95.63887854511682
 10
146.9864615993542
 20
0.0
 30
-95.77426075831615
 10
140.0810813146614
 20
0.0
 30
-95.93745187309287
 10
134.1621880322598
 20
0.0
 30
-96.08010371603346
 10
127.2567895770576
 20
0.0
 30
-96.24428081209581
 10
120.3514162952631
 20
0.0
 30
-96.40410035590078
 10
112.4595625448973
 20
0.0
 30
-96.57754626159777
 10
104.5676447603557
 20
0.0
 30
-96.73617043432316
 10
95.68929432763751
 20
0.0
 30
-96.89869012793028
 10
87.79739283697107
 20
0.0
 30
-97.02536177084689
 10
76.94605368696809
 20
0.0
 30
-97.17480421051994
 10
67.83801008839603
 20
0.0
 30
-97.27658458831758
 10
60.70287560576687
 20
0.0
 30
-97.33939670388281
 10
58.5000128436406
 20
0.0
 30
-97.35563552372491
  0
ARC
  5
E5
102
{ACAD_REACTORS
330
106
102
}
330
1F
100
AcDbEntity
  8
SX$10
  6
Continuous
 62
   162
 60
     1
370
    70
100
AcDbCircle
 10
-438.0
 20
-82.235527
 30
0.0
 40
13.00000000000001
210
0.0
220
1.0
230
0.0
100
AcDbArc
 50
180.0
 51
270.0
  0
LINE
  5
E6
102
{ACAD_REACTORS
330
106
102
}
330
1F
100
AcDbEntity
  8
SX$10
  6
Continuous
 62
   162
 60
     1
370
    70
100
AcDbLine
 10
451.0
 20
0.0
 30
103.764473
 11
451.0
 21
0.0
 31
-82.235527
  0
ARC
  5
E7
102
{ACAD_REACTORS
330
106
102
}
330
1F
100
AcDbEntity
  8
SX$10
  6
Continuous
 62
   162
 60
     1
370
    70
100
AcDbCircle
 10
452.0
 20
103.764473
 30
0.0
 40
1.000000000000001
210
0.0
220
-1.0
230
0.0
100
AcDbArc
 50
90.0
 51
180.0
  0
LINE
  5
E8
102
{ACAD_REACTORS
330
106
102
}
330
1F
100
AcDbEntity
  8
SX$10
  6
Continuous
 62
   162
 60
     1
370
    70
100
AcDbLine
 10
470.0
 20
0.0
 30
104.764473
 11
452.0
 21
0.0
 31
104.764473
  0
LINE
  5
E9
102
{ACAD_REACTORS
330
106
102
}
330
1F
100
AcDbEntity
  8
SX$10
  6
Continuous
 62
   162
 60
     1
370
    70
100
AcDbLine
 10
470.0
 20
0.0
 30
105.264473
 11
470.0
 21
0.0
 31
104.764473
  0
ARC
  5
EA
102
{ACAD_REACTORS
330
106
102
}
330
1F
100
AcDbEntity
  8
SX$10
  6
Continuous
 62
   162
 60
     1
370
    70
100
AcDbCircle
 10
-469.5
 20
105.264473
 30
0.0
 40
0.5000000000000004
210
0.0
220
1.0
230
0.0
100
AcDbArc
 50
90.0
 51
180.0
  0
LINE
  5
EB
102
{ACAD_REACTORS
330
106
102
}
330
1F
100
AcDbEntity
  8
SX$10
  6
Continuous
 62
   162
 60
     1
370
    70
100
AcDbLine
 10
452.0
 20
0.0
 30
105.764473
 11
469.5
 21
0.0
 31
105.764473
  0
ARC
  5
EC
102
{ACAD_REACTORS
330
106
102
}
330
1F
100
AcDbEntity
  8
SX$10
  6
Continuous
 62
   162
 60
     1
370
    70
100
AcDbCircle
 10
-452.0
 20
103.764473
 30
0.0
 40
2.000000000000002
210
0.0
220
1.0
230
0.0
100
AcDbArc
 50
0.0
 51
90.0
  0
LINE
  5
ED
102
{ACAD_REACTORS
330
106
102
}
330
1F
100
AcDbEntity
  8
SX$10
  6
Continuous
 62
   162
 60
     1
370
    70
100
AcDbLine
 10
450.0
 20
0.0
 30
-82.235527
 11
450.0
 21
0.0
 31
103.764473
  0
ARC
  5
EE
102
{ACAD_REACTORS
330
106
102
}
330
1F
100
AcDbEntity
  8
SX$10
  6
Continuous
 62
   162
 60
     1
370
    70
100
AcDbCircle
 10
438.0
 20
-82.235527
 30
0.0
 40
12.00000000000001
210
0.0
220
-1.0
230
0.0
100
AcDbArc
 50
270.0
 51
360.0
  0
SPLINE
  5
EF
102
{ACAD_REACTORS
330
106
102
}
330
1F
100
AcDbEntity
  8
SX$10
  6
Continuous
 62
   162
 60
     1
370
    70
100
AcDbSpline
210
0.0
220
-1.0
230
0.0
 70
     8
 71
     3
 72
    33
 73
    29
 74
     0
 42
0.000000001
 43
0.0000000001
 40
0.0
 40
0.0
 40
0.0
 40
0.0
 40
0.0174119629403464
 40
0.0564039717819254
 40
0.0720010660097697
 40
0.1031958579554486
 40
0.1187935854462472
 40
0.1421906109714037
 40
0.1655881383889845
 40
0.1811867323909148
 40
0.1967854732629886
 40
0.2201837276603589
 40
0.227983145873079
 40
0.2513812422624866
 40
0.2669797181809961
 40
0.2747788430259992
 40
0.2825778776044287
 40
0.2981756395469634
 40
0.3059743537928061
 40
0.3215714366697798
 40
0.3371680835672214
 40
0.3449662681604907
 40
0.3605624443694586
 40
0.3683604778869882
 40
0.3761584992863689
 40
0.3917545368408994
 40
0.4385426493915995
 40
1.0
 40
1.0
 40
1.0
 40
1.0
 10
58.50002668513322
 20
0.0
 30
-96.35499449632982
 10
60.70287562635912
 20
0.0
 30
-96.33932599614988
 10
67.8380101014871
 20
0.0
 30
-96.27650982795399
 10
76.94605368892749
 20
0.0
 30
-96.17472418288281
 10
87.79739283648102
 20
0.0
 30
-96.02527604528161
 10
95.68929432507753
 20
0.0
 30
-95.89860081319722
 10
104.5676447564537
 20
0.0
 30
-95.73607818741556
 10
112.4595625363391
 20
0.0
 30
-95.577452424296
 10
120.3514162866546
 20
0.0
 30
-95.40400652437985
 10
127.2567895699633
 20
0.0
 30
-95.24418844824697
 10
134.1621880201318
 20
0.0
 30
-95.0800141598993
 10
140.0810813054748
 20
0.0
 30
-94.93736634828892
 10
146.9864615903418
 20
0.0
 30
-94.7741817341313
 10
152.9053375933687
 20
0.0
 30
-94.63880671717845
 10
158.8242812893318
 20
0.0
 30
-94.51679449637398
 10
162.7702416269638
 20
0.0
 30
-94.44333021594416
 10
166.7161576664128
 20
0.0
 30
-94.3760662389345
 10
170.6620985138618
 20
0.0
 30
-94.31963780690911
 10
175.5945285440829
 20
0.0
 30
-94.26645995551384
 10
180.5269292701552
 20
0.0
 30
-94.23165348254619
 10
185.4594061761483
 20
0.0
 30
-94.23317135038225
 10
190.3918548158453
 20
0.0
 30
-94.23690995178842
 10
194.3378172100681
 20
0.0
 30
-94.23559307681379
 10
198.2837809845927
 20
0.0
 30
-94.23551480531852
 10
202.2297295585161
 20
0.0
 30
-94.235535777986
 10
211.1081081465685
 20
0.0
 30
-94.23552935864946
 10
290.0270270267876
 20
0.0
 30
-94.2355271990907
 10
366.9729729729829
 20
0.0
 30
-94.23552721079122
 10
438.0000000000002
 20
0.0
 30
-94.2355272107894
  0
SPLINE
  5
F0
102
{ACAD_REACTORS
330
106
102
}
330
1F
100
AcDbEntity
  8
SX$10
  6
Continuous
 62
   162
 60
     1
370
    70
100
AcDbSpline
210
0.0
220
-1.0
230
0.0
 70
     8
 71
     3
 72
     9
 73
     5
 74
     0
 42
0.000000001
 43
0.0000000001
 40
0.0
 40
0.0
 40
0.0
 40
0.0
 40
0.5003189482014654
 40
1.0
 40
1.0
 40
1.0
 40
1.0
 10
56.53092980987866
 20
0.0
 30
-98.01938531762481
 10
56.61139822585999
 20
0.0
 30
-97.55851303507289
 10
57.11074084087549
 20
0.0
 30
-96.70957197656614
 10
58.03192844677152
 20
0.0
 30
-96.35832400167844
 10
58.50002668513322
 20
0.0
 30
-96.35499449632982
  0
SPLINE
  5
F1
102
{ACAD_REACTORS
330
106
102
}
330
1F
100
AcDbEntity
  8
SX$10
  6
Continuous
 62
   162
 60
     1
370
    70
100
AcDbSpline
210
0.0
220
1.0
230
0.0
 70
     8
 71
     3
 72
     8
 73
     4
 74
     0
 42
0.000000001
 43
0.0000000001
 40
0.0
 40
0.0
 40
0.0
 40
0.0
 40
1.0
 40
1.0
 40
1.0
 40
1.0
 10
55.8171313197791
 20
0.0
 30
-98.81209625844411
 10
56.17786406856131
 20
0.0
 30
-98.70848135652021
 10
56.46631041274905
 20
0.0
 30
-98.38948442656165
 10
56.53092980987866
 20
0.0
 30
-98.01938531762481
  0
SPLINE
  5
F2
102
{ACAD_REACTORS
330
106
102
}
330
1F
100
AcDbEntity
  8
SX$10
  6
Continuous
 62
   162
 60
     1
370
    70
100
AcDbSpline
210
0.0
220
1.0
230
0.0
 70
     8
 71
     3
 72
     8
 73
     4
 74
     0
 42
0.000000001
 43
0.0000000001
 40
0.0
 40
0.0
 40
0.0
 40
0.0
 40
1.0
 40
1.0
 40
1.0
 40
1.0
 10
45.00000000000023
 20
0.0
 30
-101.9098226634823
 10
48.60657525084336
 20
0.0
 30
-100.8802709954546
 10
52.21224447620644
 20
0.0
 30
-99.84754424037678
 10
55.8171313197791
 20
0.0
 30
-98.81209625844411
  0
LINE
  5
F3
102
{ACAD_REACTORS
330
106
102
}
330
1F
100
AcDbEntity
  8
SX$10
  6
Continuous
 62
   162
 60
     1
370
    70
100
AcDbLine
 10
-470.0
 20
0.0
 30
104.764473
 11
-470.0
 21
0.0
 31
105.264473
  0
LINE
  5
F4
102
{ACAD_REACTORS
330
106
102
}
330
1F
100
AcDbEntity
  8
SX$10
  6
Continuous
 62
   162
 60
     1
370
    70
100
AcDbLine
 10
-452.0
 20
0.0
 30
104.764473
 11
-470.0
 21
0.0
 31
104.764473
  0
ARC
  5
F5
102
{ACAD_REACTORS
330
106
102
}
330
1F
100
AcDbEntity
  8
SX$10
  6
Continuous
 62
   162
 60
     1
370
    70
100
AcDbCircle
 10
-452.0
 20
103.764473
 30
0.0
 40
1.000000000000001
210
0.0
220
-1.0
230
0.0
100
AcDbArc
 50
0.0
 51
90.0
  0
LINE
  5
F6
102
{ACAD_REACTORS
330
106
102
}
330
1F
100
AcDbEntity
  8
SX$10
  6
Continuous
 62
   162
 60
     1
370
    70
100
AcDbLine
 10
-451.0
 20
0.0
 30
-82.235527
 11
-451.0
 21
0.0
 31
103.764473
  0
ARC
  5
F7
102
{ACAD_REACTORS
330
106
102
}
330
1F
100
AcDbEntity
  8
SX$10
  6
Continuous
 62
   162
 60
     1
370
    70
100
AcDbCircle
 10
438.0
 20
-82.235527
 30
0.0
 40
13.00000000000001
210
0.0
220
1.0
230
0.0
100
AcDbArc
 50
270.0
 51
0.0
  0
SPLINE
  5
F8
102
{ACAD_REACTORS
330
106
102
}
330
1F
100
AcDbEntity
  8
SX$10
  6
Continuous
 62
   162
 60
     1
370
    70
100
AcDbSpline
210
0.0
220
-1.0
230
0.0
 70
     8
 71
     3
 72
    33
 73
    29
 74
     0
 42
0.000000001
 43
0.0000000001
 40
0.0
 40
0.0
 40
0.0
 40
0.0
 40
0.0174125987555433
 40
0.0564045822062285
 40
0.0720016662723914
 40
0.1031964378975429
 40
0.1187941552360368
 40
0.1421911655547467
 40
0.1655886778077162
 40
0.1811872617321483
 40
0.1967859925585424
 40
0.2201842319555463
 40
0.2279836451874308
 40
0.2513817266911233
 40
0.2669801927274755
 40
0.2747793126408294
 40
0.2825783422918448
 40
0.2981760943841316
 40
0.3059748037023344
 40
0.3215718767048822
 40
0.3371685136815118
 40
0.3449666932893498
 40
0.3605628594666703
 40
0.3683608879389725
 40
0.3761589042811627
 40
0.3917549317110651
 40
0.4385430138871368
 40
1.0
 40
1.0
 40
1.0
 40
1.0
 10
-58.49998753836964
 20
0.0
 30
-97.3556355887387
 10
-60.70271272024554
 20
0.0
 30
-97.339396732539
 10
-67.8379269921594
 20
0.0
 30
-97.27655470505032
 10
-76.9460536869675
 20
0.0
 30
-97.17480421052043
 10
-87.7973928369724
 20
0.0
 30
-97.02536177084623
 10
-95.6892943276394
 20
0.0
 30
-96.89869012792997
 10
-104.5676447603571
 20
0.0
 30
-96.73617043432284
 10
-112.4595625448969
 20
0.0
 30
-96.57754626159914
 10
-120.3514162952645
 20
0.0
 30
-96.40410035589977
 10
-127.2567895770587
 20
0.0
 30
-96.2442808120961
 10
-134.1621880322582
 20
0.0
 30
-96.08010371603251
 10
-140.081081314662
 20
0.0
 30
-95.93745187309304
 10
-146.9864615993535
 20
0.0
 30
-95.7742607583161
 10
-152.90533760451
 20
0.0
 30
-95.63887854511702
 10
-158.8242812929408
 20
0.0
 30
-95.51685677090914
 10
-162.7702416282957
 20
0.0
 30
-95.44338508659757
 10
-166.7161576673055
 20
0.0
 30
-95.37611298505178
 10
-170.6620985129132
 20
0.0
 30
-95.31967531093802
 10
-175.5945285404356
 20
0.0
 30
-95.2664843236484
 10
-180.5269292598159
 20
0.0
 30
-95.23166232160949
 10
-185.4594061665597
 20
0.0
 30
-95.2331708657422
 10
-190.3918548041064
 20
0.0
 30
-95.23690968565023
 10
-194.3378171982222
 20
0.0
 30
-95.23559308287093
 10
-198.2837809802103
 20
0.0
 30
-95.23551480417777
 10
-202.2297295583262
 20
0.0
 30
-95.2355357787735
 10
-211.1081081466698
 20
0.0
 30
-95.2355293588467
 10
-290.0270270267732
 20
0.0
 30
-95.23552719909073
 10
-366.9729729730511
 20
0.0
 30
-95.23552721078703
 10
-438.0000000000002
 20
0.0
 30
-95.23552721078939
  0
SPLINE
  5
F9
102
{ACAD_REACTORS
330
106
102
}
330
1F
100
AcDbEntity
  8
SX$10
  6
Continuous
 62
   162
 60
     1
370
    70
100
AcDbSpline
210
0.0
220
-1.0
230
0.0
 70
     8
 71
     3
 72
     9
 73
     5
 74
     0
 42
0.000000001
 43
0.0000000001
 40
0.0
 40
0.0
 40
0.0
 40
0.0
 40
0.5000762866924664
 40
1.0
 40
1.0
 40
1.0
 40
1.0
 10
-57.50110280824858
 20
0.0
 30
-98.30974874446584
 10
-57.51380710463734
 20
0.0
 30
-98.05527598602744
 10
-57.74595480896277
 20
0.0
 30
-97.566531662735
 10
-58.24517544841539
 20
0.0
 30
-97.35751410582326
 10
-58.49998753836964
 20
0.0
 30
-97.3556355887387
  0
SPLINE
  5
FA
102
{ACAD_REACTORS
330
106
102
}
330
1F
100
AcDbEntity
  8
SX$10
  6
Continuous
 62
   162
 60
     1
370
    70
100
AcDbSpline
210
0.0
220
-1.0
230
0.0
 70
     8
 71
     3
 72
     9
 73
     5
 74
     0
 42
0.000000001
 43
0.0000000001
 40
0.0
 40
0.0
 40
0.0
 40
0.0
 40
0.5004287184437415
 40
1.0
 40
1.0
 40
1.0
 40
1.0
 10
-56.40862902337015
 20
0.0
 30
-99.6803454700178
 10
-56.70891399317324
 20
0.0
 30
-99.59407526516819
 10
-57.24860662999083
 20
0.0
 30
-99.22954031241834
 10
-57.48551464590885
 20
0.0
 30
-98.62198663220016
 10
-57.50110280824858
 20
0.0
 30
-98.30974874446584
  0
SPLINE
  5
FB
102
{ACAD_REACTORS
330
106
102
}
330
1F
100
AcDbEntity
  8
SX$10
  6
Continuous
 62
   162
 60
     1
370
    70
100
AcDbSpline
210
0.0
220
1.0
230
0.0
 70
     8
 71
     3
 72
     8
 73
     4
 74
     0
 42
0.000000001
 43
0.0000000001
 40
0.0
 40
0.0
 40
0.0
 40
0.0
 40
1.0
 40
1.0
 40
1.0
 40
1.0
 10
-44.99999999999978
 20
0.0
 30
-102.9476366841863
 10
-48.80383556648736
 20
0.0
 30
-101.8618935984228
 10
-52.60666620281079
 20
0.0
 30
-100.7726282824919
 10
-56.40862902337015
 20
0.0
 30
-99.6803454700178
  0
LINE
  5
FC
102
{ACAD_REACTORS
330
106
102
}
330
1F
100
AcDbEntity
  8
SX$10
  6
Continuous
 62
   162
 60
     1
370
    70
100
AcDbLine
 10
-45.0
 20
0.0
 30
-101.909823
 11
-45.0
 21
0.0
 31
-102.947637
  0
SPLINE
  5
FD
102
{ACAD_REACTORS
330
106
102
}
330
1F
100
AcDbEntity
  8
SX$10
  6
Continuous
 62
   162
 60
     1
370
    70
100
AcDbSpline
210
0.0
220
1.0
230
0.0
 70
     8
 71
     3
 72
     8
 73
     4
 74
     0
 42
0.000000001
 43
0.0000000001
 40
0.0
 40
0.0
 40
0.0
 40
0.0
 40
1.0
 40
1.0
 40
1.0
 40
1.0
 10
-55.81761613059889
 20
0.0
 30
-98.8117176769766
 10
-52.212244476206
 20
0.0
 30
-99.84754424037678
 10
-48.60657525084293
 20
0.0
 30
-100.8802709954546
 10
-44.99999999999978
 20
0.0
 30
-101.9098226634823
  0
SPLINE
  5
FE
102
{ACAD_REACTORS
330
106
102
}
330
1F
100
AcDbEntity
  8
SX$10
  6
Continuous
 62
   162
 60
     1
370
    70
100
AcDbSpline
210
0.0
220
-1.0
230
0.0
 70
     8
 71
     3
 72
     8
 73
     4
 74
     0
 42
0.000000001
 43
0.0000000001
 40
0.0
 40
0.0
 40
0.0
 40
0.0
 40
1.0
 40
1.0
 40
1.0
 40
1.0
 10
-56.53093104786672
 20
0.0
 30
-98.01938334674266
 10
-56.4663484233085
 20
0.0
 30
-98.38927595452428
 10
-56.17818678542805
 20
0.0
 30
-98.70812539910433
 10
-55.81761613059889
 20
0.0
 30
-98.8117176769766
  0
SPLINE
  5
FF
102
{ACAD_REACTORS
330
106
102
}
330
1F
100
AcDbEntity
  8
SX$10
  6
Continuous
 62
   162
 60
     1
370
    70
100
AcDbSpline
210
0.0
220
-1.0
230
0.0
 70
     8
 71
     3
 72
     9
 73
     5
 74
     0
 42
0.000000001
 43
0.0000000001
 40
0.0
 40
0.0
 40
0.0
 40
0.0
 40
0.4996810517985346
 40
1.0
 40
1.0
 40
1.0
 40
1.0
 10
-58.49998390911824
 20
0.0
 30
-96.35499460086073
 10
-58.03192844677108
 20
0.0
 30
-96.3583240016784
 10
-57.11074084087505
 20
0.0
 30
-96.70957197656614
 10
-56.61139822585955
 20
0.0
 30
-97.55851303507289
 10
-56.53093104786672
 20
0.0
 30
-98.01938334674266
  0
SPLINE
  5
100
102
{ACAD_REACTORS
330
106
102
}
330
1F
100
AcDbEntity
  8
SX$10
  6
Continuous
 62
   162
 60
     1
370
    70
100
AcDbSpline
210
0.0
220
-1.0
230
0.0
 70
     8
 71
     3
 72
    33
 73
    29
 74
     0
 42
0.000000001
 43
0.0000000001
 40
0.0
 40
0.0
 40
0.0
 40
0.0
 40
0.56145698726405
 40
0.6082450695360542
 40
0.6238410969976862
 40
0.6316391133506162
 40
0.6394371418216869
 40
0.6550333079376662
 40
0.6628314874843793
 40
0.6784281242885278
 40
0.6940251970719261
 40
0.7018239062708687
 40
0.7174216581193884
 40
0.7252206876507121
 40
0.7330198074485497
 40
0.7486182732725825
 40
0.7720163545200283
 40
0.7798157676853933
 40
0.803214006940699
 40
0.8188127377181242
 40
0.8344113216255014
 40
0.8578088339014879
 40
0.881205844285375
 40
0.896803561682181
 40
0.9279983334403047
 40
0.9435954175745671
 40
0.9825874011826596
 40
1.0
 40
1.0
 40
1.0
 40
1.0
 10
-437.9999999999927
 20
0.0
 30
-94.2355272107894
 10
-366.9729729729341
 20
0.0
 30
-94.23552721079258
 10
-290.0270270268142
 20
0.0
 30
-94.2355271990942
 10
-211.1081081465685
 20
0.0
 30
-94.23552935864981
 10
-202.2297295585153
 20
0.0
 30
-94.23553577798592
 10
-198.2837809845914
 20
0.0
 30
-94.2355148053185
 10
-194.3378172100675
 20
0.0
 30
-94.23559307681376
 10
-190.391854815844
 20
0.0
 30
-94.23690995178858
 10
-185.4594061761477
 20
0.0
 30
-94.23317135038212
 10
-180.5269292701538
 20
0.0
 30
-94.23165348254642
 10
-175.5945285440815
 20
0.0
 30
-94.26645995551391
 10
-170.6620985138626
 20
0.0
 30
-94.31963780690916
 10
-166.7161576664139
 20
0.0
 30
-94.37606623893438
 10
-162.7702416269628
 20
0.0
 30
-94.44333021594416
 10
-158.8242812893325
 20
0.0
 30
-94.51679449637383
 10
-152.9053375933685
 20
0.0
 30
-94.63880671717814
 10
-146.9864615903415
 20
0.0
 30
-94.7741817341313
 10
-140.0810813054758
 20
0.0
 30
-94.93736634828886
 10
-134.1621880201316
 20
0.0
 30
-95.08001415989978
 10
-127.2567895699634
 20
0.0
 30
-95.24418844824663
 10
-120.3514162866547
 20
0.0
 30
-95.40400652437977
 10
-112.4595625363391
 20
0.0
 30
-95.57745242429584
 10
-104.5676447564534
 20
0.0
 30
-95.73607818741554
 10
-95.68929432507835
 20
0.0
 30
-95.89860081319745
 10
-87.79739283648213
 20
0.0
 30
-96.0252760452815
 10
-76.9460536889277
 20
0.0
 30
-96.17472418288276
 10
-67.83792699512917
 20
0.0
 30
-96.27647995805644
 10
-60.70271272051358
 20
0.0
 30
-96.33932601520003
 10
-58.49998390911824
 20
0.0
 30
-96.35499460086073
  0
SPLINE
  5
101
102
{ACAD_REACTORS
330
106
102
}
330
1F
100
AcDbEntity
  8
SX$10
  6
Continuous
 62
   162
 60
     1
370
    70
100
AcDbSpline
210
0.0
220
1.0
230
0.0
 70
    12
 71
     3
 72
     8
 73
     4
 74
     0
 42
0.000000001
 43
0.0000000001
 40
0.0
 40
0.0
 40
0.0
 40
0.0
 40
1.0
 40
1.0
 40
1.0
 40
1.0
 10
-449.9999973693206
 20
0.0
 30
-82.23553221078943
 41
0.5857863870767654
 10
-449.99999707106
 20
0.0
 30
-89.26496713998125
 41
0.4714045376410782
 10
-445.029434929185
 20
0.0
 30
-94.23552721078913
 41
0.4714045376410782
 10
-437.9999999999927
 20
0.0
 30
-94.23552721078937
 41
0.5857863870767654
  0
SPLINE
  5
102
102
{ACAD_REACTORS
330
106
102
}
330
1F
100
AcDbEntity
  8
SX$10
  6
Continuous
 62
   162
 60
     1
370
    70
100
AcDbSpline
210
0.0
220
-1.0
230
0.0
 70
     8
 71
     3
 72
     8
 73
     4
 74
     0
 42
0.000000001
 43
0.0000000001
 40
0.0
 40
0.0
 40
0.0
 40
0.0
 40
1.0
 40
1.0
 40
1.0
 40
1.0
 10
-449.9999999999999
 20
0.0
 30
103.7644727892106
 10
-449.999999999997
 20
0.0
 30
41.76447112254387
 10
-449.9999999999941
 20
0.0
 30
-20.23553054412283
 10
-449.9999973693205
 20
0.0
 30
-82.23553221078943
  0
ARC
  5
103
102
{ACAD_REACTORS
330
106
102
}
330
1F
100
AcDbEntity
  8
SX$10
  6
Continuous
 62
   162
 60
     1
370
    70
100
AcDbCircle
 10
452.0
 20
103.764473
 30
0.0
 40
2.000000000000002
210
0.0
220
1.0
230
0.0
100
AcDbArc
 50
90.0
 51
180.0
  0
LINE
  5
104
102
{ACAD_REACTORS
330
106
102
}
330
1F
100
AcDbEntity
  8
SX$10
  6
Continuous
 62
   162
 60
     1
370
    70
100
AcDbLine
 10
-469.5
 20
0.0
 30
105.764473
 11
-452.0
 21
0.0
 31
105.764473
  0
ARC
  5
105
102
{ACAD_REACTORS
330
106
102
}
330
1F
100
AcDbEntity
  8
SX$10
  6
Continuous
 62
   162
 60
     1
370
    70
100
AcDbCircle
 10
469.5
 20
105.264473
 30
0.0
 40
0.5000000000000004
210
0.0
220
1.0
230
0.0
100
AcDbArc
 50
0.0
 51
90.0
  0
HATCH
  5
106
330
1F
100
AcDbEntity
  8
SX$10
  6
Continuous
 62
    18
370
    13
100
AcDbHatch
 10
0.0
 20
0.0
 30
0.0
210
0.0
220
-1.0
230
0.0
  2
ANSI31
 70
     0
 71
     1
 91
        2
 92
        0
 93
       19
 72
     1
 10
45.00000000000023
 20
-102.9476366841863
 11
45.00000000000023
 21
-101.9098226634823
 72
     4
 94
        3
 73
     0
 74
     0
 95
        8
 96
        4
 40
0.0
 40
0.0
 40
0.0
 40
0.0
 40
1.0
 40
1.0
 40
1.0
 40
1.0
 10
56.40912777703163
 20
-99.68007812863858
 10
52.60666620281124
 20
-100.7726282824919
 10
48.80383556648779
 20
-101.8618935984228
 10
45.00000000000023
 20
-102.9476366841863
 72
     4
 94
        3
 73
     0
 74
     0
 95
        9
 96
        5
 40
0.0
 40
0.0
 40
0.0
 40
0.0
 40
0.4997305048460907
 40
1.0
 40
1.0
 40
1.0
 40
1.0
 10
57.50122419960431
 20
-98.3093761663456
 10
57.48551463961937
 20
-98.62198630073244
 10
57.24868211381438
 20
-99.22934641588519
 10
56.70925786309068
 20
-99.5938426295285
 10
56.40912777703163
 20
-99.68007812863858
 72
     4
 94
        3
 73
     0
 74
     0
 95
        9
 96
        5
 40
0.0
 40
0.0
 40
0.0
 40
0.0
 40
0.5001481491586437
 40
1.0
 40
1.0
 40
1.0
 40
1.0
 10
58.5000128436406
 20
-97.35563552372491
 10
58.24517544841584
 20
-97.35751410582326
 10
57.74617882860479
 20
-97.56643786845952
 10
57.51401550575473
 20
-98.05483740532976
 10
57.50122419960431
 20
-98.3093761663456
 72
     4
 94
        3
 73
     0
 74
     0
 95
       33
 96
       29
 40
0.0
 40
0.0
 40
0.0
 40
0.0
 40
0.5770533868959599
 40
0.6082454618633095
 40
0.6238414993848618
 40
0.6316395207728797
 40
0.6394375542910166
 40
0.6550337305600781
 40
0.6628319152138489
 40
0.6784285622825227
 40
0.6940256453773983
 40
0.701824359741876
 40
0.7174221219269299
 40
0.7252211566244277
 40
0.7330202815843224
 40
0.7486187577139038
 40
0.7720168543576869
 40
0.7798162726363022
 40
0.803214527173499
 40
0.8188132680932927
 40
0.8344118621110295
 40
0.8578093895037208
 40
0.881206414961829
 40
0.8968041423930666
 40
0.9279989342032766
 40
0.9435960283617736
 40
0.9825880370428259
 40
1.0
 40
1.0
 40
1.0
 40
1.0
 10
437.999999999997
 20
-95.2355272107894
 10
365.0000000000146
 20
-95.23552721079723
 10
288.054054050742
 20
-95.23552704667124
 10
209.1351351583483
 20
-95.23552859829165
 10
202.2297295583284
 20
-95.23553577877347
 10
198.2837809802105
 20
-95.23551480417768
 10
194.337817198224
 20
-95.23559308287095
 10
190.3918548041079
 20
-95.23690968565022
 10
185.4594061665607
 20
-95.2331708657422
 10
180.5269292598177
 20
-95.23166232160963
 10
175.5945285404357
 20
-95.26648432364814
 10
170.662098512914
 20
-95.31967531093814
 10
166.7161576673054
 20
-95.37611298505176
 10
162.7702416282968
 20
-95.44338508659763
 10
158.8242812929395
 20
-95.51685677090926
 10
152.9053376045085
 20
-95.63887854511682
 10
146.9864615993542
 20
-95.77426075831615
 10
140.0810813146614
 20
-95.93745187309287
 10
134.1621880322598
 20
-96.08010371603346
 10
127.2567895770576
 20
-96.24428081209581
 10
120.3514162952631
 20
-96.40410035590078
 10
112.4595625448973
 20
-96.57754626159777
 10
104.5676447603557
 20
-96.73617043432316
 10
95.68929432763751
 20
-96.89869012793028
 10
87.79739283697107
 20
-97.02536177084689
 10
76.94605368696809
 20
-97.17480421051994
 10
67.83801008839603
 20
-97.27658458831758
 10
60.70287560576687
 20
-97.33939670388281
 10
58.5000128436406
 20
-97.35563552372491
 72
     2
 10
437.999999999997
 20
-82.23552721078939
 40
13.00000000000001
 50
0.0000000000001018
 51
90.0
 73
     0
 72
     1
 10
451.0000000000001
 20
103.7644727892106
 11
451.0000000000001
 21
-82.23552721078944
 72
     2
 10
452.0000000000001
 20
103.7644727892106
 40
1.000000000000001
 50
90.0
 51
180.0
 73
     1
 72
     1
 10
470.0000000000001
 20
104.7644727892106
 11
452.0000000000001
 21
104.7644727892106
 72
     1
 10
470.0000000000001
 20
105.2644727892106
 11
470.0000000000001
 21
104.7644727892106
 72
     2
 10
469.5000000000001
 20
105.2644727892106
 40
0.5000000000000004
 50
270.0
 51
360.0
 73
     0
 72
     1
 10
452.0000000000001
 20
105.7644727892106
 11
469.5000000000001
 21
105.7644727892106
 72
     2
 10
452.0000000000001
 20
103.7644727892106
 40
2.000000000000002
 50
180.0
 51
270.0
 73
     0
 72
     1
 10
450.0000000000001
 20
-82.23552721078957
 11
450.0000000000001
 21
103.7644727892105
 72
     2
 10
437.9999999999999
 20
-82.23552721078939
 40
12.00000000000001
 50
270.0000000000013
 51
359.9999999999992
 73
     1
 72
     4
 94
        3
 73
     0
 74
     0
 95
       33
 96
       29
 40
0.0
 40
0.0
 40
0.0
 40
0.0
 40
0.0174119629403464
 40
0.0564039717819254
 40
0.0720010660097697
 40
0.1031958579554486
 40
0.1187935854462472
 40
0.1421906109714037
 40
0.1655881383889845
 40
0.1811867323909148
 40
0.1967854732629886
 40
0.2201837276603589
 40
0.227983145873079
 40
0.2513812422624866
 40
0.2669797181809961
 40
0.2747788430259992
 40
0.2825778776044287
 40
0.2981756395469634
 40
0.3059743537928061
 40
0.3215714366697798
 40
0.3371680835672214
 40
0.3449662681604907
 40
0.3605624443694586
 40
0.3683604778869882
 40
0.3761584992863689
 40
0.3917545368408994
 40
0.4385426493915995
 40
1.0
 40
1.0
 40
1.0
 40
1.0
 10
58.50002668513322
 20
-96.35499449632982
 10
60.70287562635912
 20
-96.33932599614988
 10
67.8380101014871
 20
-96.27650982795399
 10
76.94605368892749
 20
-96.17472418288281
 10
87.79739283648102
 20
-96.02527604528161
 10
95.68929432507753
 20
-95.89860081319722
 10
104.5676447564537
 20
-95.73607818741556
 10
112.4595625363391
 20
-95.577452424296
 10
120.3514162866546
 20
-95.40400652437985
 10
127.2567895699633
 20
-95.24418844824697
 10
134.1621880201318
 20
-95.0800141598993
 10
140.0810813054748
 20
-94.93736634828892
 10
146.9864615903418
 20
-94.7741817341313
 10
152.9053375933687
 20
-94.63880671717845
 10
158.8242812893318
 20
-94.51679449637398
 10
162.7702416269638
 20
-94.44333021594416
 10
166.7161576664128
 20
-94.3760662389345
 10
170.6620985138618
 20
-94.31963780690911
 10
175.5945285440829
 20
-94.26645995551384
 10
180.5269292701552
 20
-94.23165348254619
 10
185.4594061761483
 20
-94.23317135038225
 10
190.3918548158453
 20
-94.23690995178842
 10
194.3378172100681
 20
-94.23559307681379
 10
198.2837809845927
 20
-94.23551480531852
 10
202.2297295585161
 20
-94.235535777986
 10
211.1081081465685
 20
-94.23552935864946
 10
290.0270270267876
 20
-94.2355271990907
 10
366.9729729729829
 20
-94.23552721079122
 10
438.0000000000002
 20
-94.2355272107894
 72
     4
 94
        3
 73
     0
 74
     0
 95
        9
 96
        5
 40
0.0
 40
0.0
 40
0.0
 40
0.0
 40
0.5003189482014654
 40
1.0
 40
1.0
 40
1.0
 40
1.0
 10
56.53092980987866
 20
-98.01938531762481
 10
56.61139822585999
 20
-97.55851303507289
 10
57.11074084087549
 20
-96.70957197656614
 10
58.03192844677152
 20
-96.35832400167844
 10
58.50002668513322
 20
-96.35499449632982
 72
     4
 94
        3
 73
     0
 74
     0
 95
        8
 96
        4
 40
0.0
 40
0.0
 40
0.0
 40
0.0
 40
1.0
 40
1.0
 40
1.0
 40
1.0
 10
55.8171313197791
 20
-98.81209625844411
 10
56.17786406856131
 20
-98.70848135652021
 10
56.46631041274905
 20
-98.38948442656165
 10
56.53092980987866
 20
-98.01938531762481
 72
     4
 94
        3
 73
     0
 74
     0
 95
        8
 96
        4
 40
0.0
 40
0.0
 40
0.0
 40
0.0
 40
1.0
 40
1.0
 40
1.0
 40
1.0
 10
45.00000000000023
 20
-101.9098226634823
 10
48.60657525084336
 20
-100.8802709954546
 10
52.21224447620644
 20
-99.84754424037678
 10
55.8171313197791
 20
-98.81209625844411
 97
       19
330
E0
330
E1
330
E2
330
E3
330
E4
330
E5
330
E6
330
E7
330
E8
330
E9
330
EA
330
EB
330
EC
330
ED
330
EE
330
EF
330
F0
330
F1
330
F2
 92
        0
 93
       19
 72
     1
 10
-469.9999999999999
 20
104.7644727892106
 11
-469.9999999999999
 21
105.2644727892106
 72
     1
 10
-452.0
 20
104.7644727892106
 11
-469.9999999999998
 21
104.7644727892106
 72
     2
 10
-451.9999999999999
 20
103.7644727892106
 40
1.000000000000001
 50
0.0
 51
90.0
 73
     1
 72
     1
 10
-450.9999999999999
 20
-82.23552721078937
 11
-450.9999999999999
 21
103.7644727892106
 72
     2
 10
-437.9999999999955
 20
-82.23552721078937
 40
13.00000000000001
 50
90.00000000002082
 51
180.0
 73
     0
 72
     4
 94
        3
 73
     0
 74
     0
 95
       33
 96
       29
 40
0.0
 40
0.0
 40
0.0
 40
0.0
 40
0.0174125987555433
 40
0.0564045822062285
 40
0.0720016662723914
 40
0.1031964378975429
 40
0.1187941552360368
 40
0.1421911655547467
 40
0.1655886778077162
 40
0.1811872617321483
 40
0.1967859925585424
 40
0.2201842319555463
 40
0.2279836451874308
 40
0.2513817266911233
 40
0.2669801927274755
 40
0.2747793126408294
 40
0.2825783422918448
 40
0.2981760943841316
 40
0.3059748037023344
 40
0.3215718767048822
 40
0.3371685136815118
 40
0.3449666932893498
 40
0.3605628594666703
 40
0.3683608879389725
 40
0.3761589042811627
 40
0.3917549317110651
 40
0.4385430138871368
 40
1.0
 40
1.0
 40
1.0
 40
1.0
 10
-58.49998753836964
 20
-97.3556355887387
 10
-60.70271272024554
 20
-97.339396732539
 10
-67.8379269921594
 20
-97.27655470505032
 10
-76.9460536869675
 20
-97.17480421052043
 10
-87.7973928369724
 20
-97.02536177084623
 10
-95.6892943276394
 20
-96.89869012792997
 10
-104.5676447603571
 20
-96.73617043432284
 10
-112.4595625448969
 20
-96.57754626159914
 10
-120.3514162952645
 20
-96.40410035589977
 10
-127.2567895770587
 20
-96.2442808120961
 10
-134.1621880322582
 20
-96.08010371603251
 10
-140.081081314662
 20
-95.93745187309304
 10
-146.9864615993535
 20
-95.7742607583161
 10
-152.90533760451
 20
-95.63887854511702
 10
-158.8242812929408
 20
-95.51685677090914
 10
-162.7702416282957
 20
-95.44338508659757
 10
-166.7161576673055
 20
-95.37611298505178
 10
-170.6620985129132
 20
-95.31967531093802
 10
-175.5945285404356
 20
-95.2664843236484
 10
-180.5269292598159
 20
-95.23166232160949
 10
-185.4594061665597
 20
-95.2331708657422
 10
-190.3918548041064
 20
-95.23690968565023
 10
-194.3378171982222
 20
-95.23559308287093
 10
-198.2837809802103
 20
-95.23551480417777
 10
-202.2297295583262
 20
-95.2355357787735
 10
-211.1081081466698
 20
-95.2355293588467
 10
-290.0270270267732
 20
-95.23552719909073
 10
-366.9729729730511
 20
-95.23552721078703
 10
-438.0000000000002
 20
-95.23552721078939
 72
     4
 94
        3
 73
     0
 74
     0
 95
        9
 96
        5
 40
0.0
 40
0.0
 40
0.0
 40
0.0
 40
0.5000762866924664
 40
1.0
 40
1.0
 40
1.0
 40
1.0
 10
-57.50110280824858
 20
-98.30974874446584
 10
-57.51380710463734
 20
-98.05527598602744
 10
-57.74595480896277
 20
-97.566531662735
 10
-58.24517544841539
 20
-97.35751410582326
 10
-58.49998753836964
 20
-97.3556355887387
 72
     4
 94
        3
 73
     0
 74
     0
 95
        9
 96
        5
 40
0.0
 40
0.0
 40
0.0
 40
0.0
 40
0.5004287184437415
 40
1.0
 40
1.0
 40
1.0
 40
1.0
 10
-56.40862902337015
 20
-99.6803454700178
 10
-56.70891399317324
 20
-99.59407526516819
 10
-57.24860662999083
 20
-99.22954031241834
 10
-57.48551464590885
 20
-98.62198663220016
 10
-57.50110280824858
 20
-98.30974874446584
 72
     4
 94
        3
 73
     0
 74
     0
 95
        8
 96
        4
 40
0.0
 40
0.0
 40
0.0
 40
0.0
 40
1.0
 40
1.0
 40
1.0
 40
1.0
 10
-44.99999999999978
 20
-102.9476366841863
 10
-48.80383556648736
 20
-101.8618935984228
 10
-52.60666620281079
 20
-100.7726282824919
 10
-56.40862902337015
 20
-99.6803454700178
 72
     1
 10
-44.99999999999978
 20
-101.9098226634823
 11
-44.99999999999978
 21
-102.9476366841863
 72
     4
 94
        3
 73
     0
 74
     0
 95
        8
 96
        4
 40
0.0
 40
0.0
 40
0.0
 40
0.0
 40
1.0
 40
1.0
 40
1.0
 40
1.0
 10
-55.81761613059889
 20
-98.8117176769766
 10
-52.212244476206
 20
-99.84754424037678
 10
-48.60657525084293
 20
-100.8802709954546
 10
-44.99999999999978
 20
-101.9098226634823
 72
     4
 94
        3
 73
     0
 74
     0
 95
        8
 96
        4
 40
0.0
 40
0.0
 40
0.0
 40
0.0
 40
1.0
 40
1.0
 40
1.0
 40
1.0
 10
-56.53093104786672
 20
-98.01938334674266
 10
-56.4663484233085
 20
-98.38927595452428
 10
-56.17818678542805
 20
-98.70812539910433
 10
-55.81761613059889
 20
-98.8117176769766
 72
     4
 94
        3
 73
     0
 74
     0
 95
        9
 96
        5
 40
0.0
 40
0.0
 40
0.0
 40
0.0
 40
0.4996810517985346
 40
1.0
 40
1.0
 40
1.0
 40
1.0
 10
-58.49998390911824
 20
-96.35499460086073
 10
-58.03192844677108
 20
-96.3583240016784
 10
-57.11074084087505
 20
-96.70957197656614
 10
-56.61139822585955
 20
-97.55851303507289
 10
-56.53093104786672
 20
-98.01938334674266
 72
     4
 94
        3
 73
     0
 74
     0
 95
       33
 96
       29
 40
0.0
 40
0.0
 40
0.0
 40
0.0
 40
0.56145698726405
 40
0.6082450695360542
 40
0.6238410969976862
 40
0.6316391133506162
 40
0.6394371418216869
 40
0.6550333079376662
 40
0.6628314874843793
 40
0.6784281242885278
 40
0.6940251970719261
 40
0.7018239062708687
 40
0.7174216581193884
 40
0.7252206876507121
 40
0.7330198074485497
 40
0.7486182732725825
 40
0.7720163545200283
 40
0.7798157676853933
 40
0.803214006940699
 40
0.8188127377181242
 40
0.8344113216255014
 40
0.8578088339014879
 40
0.881205844285375
 40
0.896803561682181
 40
0.9279983334403047
 40
0.9435954175745671
 40
0.9825874011826596
 40
1.0
 40
1.0
 40
1.0
 40
1.0
 10
-437.9999999999927
 20
-94.2355272107894
 10
-366.9729729729341
 20
-94.23552721079258
 10
-290.0270270268142
 20
-94.2355271990942
 10
-211.1081081465685
 20
-94.23552935864981
 10
-202.2297295585153
 20
-94.23553577798592
 10
-198.2837809845914
 20
-94.2355148053185
 10
-194.3378172100675
 20
-94.23559307681376
 10
-190.391854815844
 20
-94.23690995178858
 10
-185.4594061761477
 20
-94.23317135038212
 10
-180.5269292701538
 20
-94.23165348254642
 10
-175.5945285440815
 20
-94.26645995551391
 10
-170.6620985138626
 20
-94.31963780690916
 10
-166.7161576664139
 20
-94.37606623893438
 10
-162.7702416269628
 20
-94.44333021594416
 10
-158.8242812893325
 20
-94.51679449637383
 10
-152.9053375933685
 20
-94.63880671717814
 10
-146.9864615903415
 20
-94.7741817341313
 10
-140.0810813054758
 20
-94.93736634828886
 10
-134.1621880201316
 20
-95.08001415989978
 10
-127.2567895699634
 20
-95.24418844824663
 10
-120.3514162866547
 20
-95.40400652437977
 10
-112.4595625363391
 20
-95.57745242429584
 10
-104.5676447564534
 20
-95.73607818741554
 10
-95.68929432507835
 20
-95.89860081319745
 10
-87.79739283648213
 20
-96.0252760452815
 10
-76.9460536889277
 20
-96.17472418288276
 10
-67.83792699512917
 20
-96.27647995805644
 10
-60.70271272051358
 20
-96.33932601520003
 10
-58.49998390911824
 20
-96.35499460086073
 72
     4
 94
        3
 73
     1
 74
     0
 95
        8
 96
        4
 40
0.0
 40
0.0
 40
0.0
 40
0.0
 40
1.0
 40
1.0
 40
1.0
 40
1.0
 10
-449.9999973693206
 20
-82.23553221078943
 42
0.5857863870767654
 10
-449.99999707106
 20
-89.26496713998125
 42
0.4714045376410782
 10
-445.029434929185
 20
-94.23552721078913
 42
0.4714045376410782
 10
-437.9999999999927
 20
-94.23552721078937
 42
0.5857863870767654
 72
     4
 94
        3
 73
     0
 74
     0
 95
        8
 96
        4
 40
0.0
 40
0.0
 40
0.0
 40
0.0
 40
1.0
 40
1.0
 40
1.0
 40
1.0
 10
-449.9999999999999
 20
103.7644727892106
 10
-449.999999999997
 20
41.76447112254387
 10
-449.9999999999941
 20
-20.23553054412283
 10
-449.9999973693205
 20
-82.23553221078943
 72
     2
 10
-451.9999999999999
 20
103.7644727892106
 40
2.000000000000002
 50
270.0
 51
360.0
 73
     0
 72
     1
 10
-469.4999999999998
 20
105.7644727892106
 11
-452.0000000000001
 21
105.7644727892106
 72
     2
 10
-469.4999999999998
 20
105.2644727892106
 40
0.5000000000000004
 50
180.0
 51
270.0
 73
     0
 97
       19
330
F3
330
F4
330
F5
330
F6
330
F7
330
F8
330
F9
330
FA
330
FB
330
FC
330
FD
330
FE
330
FF
330
100
330
101
330
102
330
103
330
104
330
105
 75
     0
 76
     1
 52
0.0
 41
1.55
 77
     0
 78
     1
 53
44.99999999999998
 43
0.0
 44
0.0
 45
-3.479849246914296
 46
3.479849246914299
 79
     0
 98
        0
  0
VIEWPORT
  5
10A
102
{ACAD_XDICTIONARY
360
1E6
102
}
330
107
100
AcDbEntity
 67
     1
  8
0
370
    70
100
AcDbViewport
 10
650.0
 20
500.0
 30
0.0
 40
1300.0
 41
1000.0
 68
     1
 69
     1
 12
650.0
 22
500.0
 13
0.0
 23
0.0
 14
1.0
 24
1.0
 15
1.0
 25
1.0
 16
0.0
 26
0.0
 36
1.0
 17
0.0
 27
0.0
 37
0.0
 42
9.530957
 43
0.0
 44
0.0
 45
1000.0
 50
0.0
 51
0.0
 72
   100
331
69
331
6A
 90
   557152
  1

281
     0
 71
     1
 74
     0
110
0.0
120
0.0
130
0.0
111
1.0
121
0.0
131
0.0
112
0.0
122
1.0
132
0.0
 79
     0
146
0.0
170
     0
  0
VIEWPORT
  5
10B
102
{ACAD_XDICTIONARY
360
1E8
102
}
330
107
100
AcDbEntity
 67
     1
  8
0
 60
     1
370
    70
100
AcDbViewport
 10
681.084174
 20
302.96823
 30
0.0
 40
952.7
 41
452.7
 68
     2
 69
     2
 12
0.0
 22
105.764473
 13
0.0
 23
0.0
 14
1.0
 24
1.0
 15
1.0
 25
1.0
 16
0.0
 26
0.0
 36
1.0
 17
0.0
 27
0.0
 37
0.0
 42
9.530957
 43
0.0
 44
0.0
 45
452.7
 50
0.0
 51
0.0
 72
   100
331
6A
 90
   557152
  1

281
     0
 71
     1
 74
     0
110
0.0
120
0.0
130
0.0
111
1.0
121
0.0
131
0.0
112
0.0
122
1.0
132
0.0
 79
     0
146
0.0
170
     0
  0
VIEWPORT
  5
10C
102
{ACAD_XDICTIONARY
360
1EA
102
}
330
107
100
AcDbEntity
 67
     1
  8
0
 60
     1
370
    70
100
AcDbViewport
 10
681.084174
 20
817.861782
 30
0.0
 40
952.7
 41
224.228946
 68
     3
 69
     3
 12
0.0
 22
0.0
 13
0.0
 23
0.0
 14
1.0
 24
1.0
 15
1.0
 25
1.0
 16
0.0
 26
-1.0
 36
0.0
 17
0.0
 27
0.0
 37
0.0
 42
9.530957
 43
0.0
 44
0.0
 45
224.228946
 50
0.0
 51
0.0
 72
   100
331
69
 90
   557152
  1

281
     0
 71
     1
 74
     0
110
0.0
120
0.0
130
0.0
111
1.0
121
0.0
131
0.0
112
0.0
122
1.0
132
0.0
 79
     0
146
0.0
170
     0
  0
LINE
  5
10D
330
107
100
AcDbEntity
 67
     1
  8
1
  6
Continuous
 62
    18
370
    35
100
AcDbLine
 10
1228.267681
 20
367.96823
 30
0.0
 11
1228.267681
 21
382.96823
 31
0.0
  0
LINE
  5
10F
330
107
100
AcDbEntity
 67
     1
  8
1
  6
Continuous
 62
    18
370
    35
100
AcDbLine
 10
108.583115
 20
367.96823
 30
0.0
 11
108.583115
 21
382.96823
 31
0.0
  0
LINE
  5
110
330
107
100
AcDbEntity
 67
     1
  8
1
  6
CENTER
 62
    18
370
    35
100
AcDbLine
 10
1233.267681
 20
382.96823
 30
0.0
 11
103.583115
 21
382.96823
 31
0.0
  0
LWPOLYLINE
  5
111
330
107
100
AcDbEntity
 67
     1
  8
1
  6
Continuous
 62
    18
370
    35
100
AcDbPolyline
 90
        2
 70
     0
 43
0.35
 10
1233.267681
 20
382.96823
 10
1223.267681
 20
382.96823
  0
LWPOLYLINE
  5
112
330
107
100
AcDbEntity
 67
     1
  8
1
  6
Continuous
 62
    18
370
    35
100
AcDbPolyline
 90
        2
 70
     0
 43
0.35
 10
103.583115
 20
382.96823
 10
113.583115
 20
382.96823
  0
MTEXT
  5
113
330
107
100
AcDbEntity
 67
     1
  8
1
  6
Continuous
 62
    18
370
    13
100
AcDbMText
 10
673.482704
 20
696.020768
 30
0.0
 40
2.5
 41
0.0
 71
     7
 72
     5
  1
\fArial Unicode MS|b0|i0;\W1.0000;Corte {\H1.00x;D-D}
  7
Arial Unicode MS
 73
     2
 44
1.069626
  0
INSERT
  5
117
330
107
100
AcDbEntity
 67
     1
  8
1
  6
Continuous
 62
    18
370
    35
100
AcDbBlockReference
  2
ASSORTED_DRAFT1
 10
0.0
 20
0.0
 30
0.0
  0
INSERT
  5
11C
330
107
100
AcDbEntity
 67
     1
  8
1
  6
Continuous
 62
    18
370
    35
100
AcDbBlockReference
  2
ASSORTED_DRAFT2
 10
0.0
 20
0.0
 30
0.0
  0
MTEXT
  5
11F
330
107
100
AcDbEntity
 67
     1
  8
1
  6
Continuous
 62
    18
370
    13
100
AcDbMText
 10
105.773078
 20
350.133288
 30
0.0
 40
7.0
 41
0.0
 71
     7
 72
     5
  1
\fArial Unicode MS|b0|i0;\W1.0000;D
  7
Arial Unicode MS
 73
     2
 44
1.069626
  0
MTEXT
  5
120
330
107
100
AcDbEntity
 67
     1
  8
1
  6
Continuous
 62
    18
370
    13
100
AcDbMText
 10
1225.457644
 20
350.133288
 30
0.0
 40
7.0
 41
0.0
 71
     7
 72
     5
  1
\fArial Unicode MS|b0|i0;\W1.0000;D
  7
Arial Unicode MS
 73
     2
 44
1.069626
  0
DIMENSION
  5
122
102
{ACAD_REACTORS
330
124
102
}
102
{ACAD_XDICTIONARY
360
123
102
}
330
107
100
AcDbEntity
 67
     1
  8
1
  6
Continuous
 62
    18
370
    13
100
AcDbDimension
  2
_U0
 10
1151.084174
 20
33.96823
 30
0.0
 11
916.084174
 21
33.96823
 31
0.0
 70
   160
 71
     1
 42
470.0
 52
90.0
  3
Standard
100
AcDbAlignedDimension
 13
681.084174
 23
382.96823
 33
0.0
 14
1151.084174
 24
92.96823
 34
0.0
100
AcDbRotatedDimension
1001
ACAD
1000
DSTYLE
1002
{
1070
   371
1070
    13
1070
   372
1070
    13
1070
   170
1070
     0
1070
   277
1070
     2
1070
   284
1070
     8
1070
   278
1070
    44
1070
   146
1040
0.08
1070
   345
1005
16
1070
   347
1005
16
1070
   346
1005
16
1070
   344
1005
0
1070
   343
1005
0
1070
   172
1070
     1
1070
    76
1070
     0
1070
    75
1070
     0
1070
   282
1070
     0
1070
   281
1070
     0
1070
    71
1070
     0
1070
   144
1040
1.0
1070
    74
1070
     0
1070
   279
1070
     0
1070
   173
1070
     1
1070
   340
1005
114
1070
   271
1070
     3
1070
   272
1070
     2
1070
    77
1070
     1
1070
    73
1070
     1
1070
   171
1070
     3
1070
   274
1070
     4
1070
   177
1070
    18
1070
   176
1070
    18
1070
   178
1070
    18
1070
    78
1070
     8
1070
    48
1040
-0.1
1070
    41
1040
20.0
1070
   147
1040
7.5
1070
    42
1040
1.0
1070
    44
1040
2.0
1070
   140
1040
15.0
1002
}
1001
ACAD_DSTYLE_DIM_LINETYPE
1070
   380
1005
16
1001
ACAD_DSTYLE_DIM_EXT1_LINETYPE
1070
   381
1005
16
1001
ACAD_DSTYLE_DIM_EXT2_LINETYPE
1070
   382
1005
16
  0
DIMENSION
  5
13B
102
{ACAD_REACTORS
330
13D
102
}
102
{ACAD_XDICTIONARY
360
13C
102
}
330
107
100
AcDbEntity
 67
     1
  8
1
  6
Continuous
 62
    18
370
    13
100
AcDbDimension
  2
_U1
 10
148.084174
 20
82.96823
 30
0.0
 11
148.084174
 21
302.96823
 31
0.0
 70
   160
 71
     1
 42
440.0
 52
90.0
  3
Standard
100
AcDbAlignedDimension
 13
221.084174
 23
522.96823
 33
0.0
 14
221.084174
 24
82.96823
 34
0.0
 50
90.0
100
AcDbRotatedDimension
1001
ACAD
1000
DSTYLE
1002
{
1070
   371
1070
    13
1070
   372
1070
    13
1070
   170
1070
     0
1070
   277
1070
     2
1070
   284
1070
     8
1070
   278
1070
    44
1070
   146
1040
0.08
1070
   345
1005
16
1070
   347
1005
16
1070
   346
1005
16
1070
   344
1005
0
1070
   343
1005
0
1070
   172
1070
     1
1070
    76
1070
     0
1070
    75
1070
     0
1070
   282
1070
     0
1070
   281
1070
     0
1070
    71
1070
     0
1070
   144
1040
1.0
1070
    74
1070
     0
1070
   279
1070
     0
1070
   173
1070
     1
1070
   340
1005
114
1070
   271
1070
     3
1070
   272
1070
     2
1070
    77
1070
     1
1070
    73
1070
     0
1070
   171
1070
     3
1070
   274
1070
     4
1070
   177
1070
    18
1070
   176
1070
    18
1070
   178
1070
    18
1070
    78
1070
     8
1070
    48
1040
-0.1
1070
    41
1040
20.0
1070
   147
1040
7.5
1070
    42
1040
1.0
1070
    44
1040
2.0
1070
   140
1040
15.0
1002
}
1001
ACAD_DSTYLE_DIM_LINETYPE
1070
   380
1005
16
1001
ACAD_DSTYLE_DIM_EXT1_LINETYPE
1070
   381
1005
16
1001
ACAD_DSTYLE_DIM_EXT2_LINETYPE
1070
   382
1005
16
  0
DIMENSION
  5
153
102
{ACAD_REACTORS
330
155
102
}
102
{ACAD_XDICTIONARY
360
154
102
}
330
107
100
AcDbEntity
 67
     1
  8
1
  6
Continuous
 62
    18
370
    13
100
AcDbDimension
  2
_U2
 10
1151.084174
 20
606.96823
 30
0.0
 11
681.084174
 21
606.96823
 31
0.0
 70
   160
 71
     1
 42
940.0
 52
90.0
  3
Standard
100
AcDbAlignedDimension
 13
211.084174
 23
512.96823
 33
0.0
 14
1151.084174
 24
512.96823
 34
0.0
100
AcDbRotatedDimension
1001
ACAD
1000
DSTYLE
1002
{
1070
   371
1070
    13
1070
   372
1070
    13
1070
   170
1070
     0
1070
   277
1070
     2
1070
   284
1070
     8
1070
   278
1070
    44
1070
   146
1040
0.08
1070
   345
1005
16
1070
   347
1005
16
1070
   346
1005
16
1070
   344
1005
0
1070
   343
1005
0
1070
   172
1070
     1
1070
    76
1070
     0
1070
    75
1070
     0
1070
   282
1070
     0
1070
   281
1070
     0
1070
    71
1070
     0
1070
   144
1040
1.0
1070
    74
1070
     0
1070
   279
1070
     0
1070
   173
1070
     1
1070
   340
1005
114
1070
   271
1070
     3
1070
   272
1070
     2
1070
    77
1070
     1
1070
    73
1070
     1
1070
   171
1070
     3
1070
   274
1070
     4
1070
   177
1070
    18
1070
   176
1070
    18
1070
   178
1070
    18
1070
    78
1070
     8
1070
    48
1040
-0.1
1070
    41
1040
20.0
1070
   147
1040
7.5
1070
    42
1040
1.0
1070
    44
1040
2.0
1070
   140
1040
15.0
1002
}
1001
ACAD_DSTYLE_DIM_LINETYPE
1070
   380
1005
16
1001
ACAD_DSTYLE_DIM_EXT1_LINETYPE
1070
   381
1005
16
1001
ACAD_DSTYLE_DIM_EXT2_LINETYPE
1070
   382
1005
16
  0
DIMENSION
  5
16B
102
{ACAD_REACTORS
330
16D
102
}
102
{ACAD_XDICTIONARY
360
16C
102
}
330
107
100
AcDbEntity
 67
     1
  8
1
  6
Continuous
 62
    18
370
    13
100
AcDbDimension
  2
_U3
 10
1131.084174
 20
557.96823
 30
0.0
 11
681.084174
 21
557.96823
 31
0.0
 70
   160
 71
     1
 42
900.0
 52
90.0
  3
Standard
100
AcDbAlignedDimension
 13
231.084174
 23
490.96823
 33
0.0
 14
1131.084174
 24
490.96823
 34
0.0
100
AcDbRotatedDimension
1001
ACAD
1000
DSTYLE
1002
{
1070
   371
1070
    13
1070
   372
1070
    13
1070
   170
1070
     0
1070
   277
1070
     2
1070
   284
1070
     8
1070
   278
1070
    44
1070
   146
1040
0.08
1070
   345
1005
16
1070
   347
1005
16
1070
   346
1005
16
1070
   344
1005
0
1070
   343
1005
0
1070
   172
1070
     1
1070
    76
1070
     0
1070
    75
1070
     0
1070
   282
1070
     0
1070
   281
1070
     0
1070
    71
1070
     0
1070
   144
1040
1.0
1070
    74
1070
     0
1070
   279
1070
     0
1070
   173
1070
     1
1070
   340
1005
114
1070
   271
1070
     3
1070
   272
1070
     2
1070
    77
1070
     1
1070
    73
1070
     1
1070
   171
1070
     3
1070
   274
1070
     4
1070
   177
1070
    18
1070
   176
1070
    18
1070
   178
1070
    18
1070
    78
1070
     8
1070
    48
1040
-0.1
1070
    41
1040
20.0
1070
   147
1040
7.5
1070
    42
1040
1.0
1070
    44
1040
2.0
1070
   140
1040
15.0
1002
}
1001
ACAD_DSTYLE_DIM_LINETYPE
1070
   380
1005
16
1001
ACAD_DSTYLE_DIM_EXT1_LINETYPE
1070
   381
1005
16
1001
ACAD_DSTYLE_DIM_EXT2_LINETYPE
1070
   382
1005
16
  0
DIMENSION
  5
183
102
{ACAD_REACTORS
330
185
102
}
102
{ACAD_XDICTIONARY
360
184
102
}
330
107
100
AcDbEntity
 67
     1
  8
1
  6
Continuous
 62
    18
370
    13
100
AcDbDimension
  2
_U4
 10
183.084174
 20
102.96823
 30
0.0
 11
183.084174
 21
302.96823
 31
0.0
 70
   160
 71
     1
 42
400.0
 52
90.0
  3
Standard
100
AcDbAlignedDimension
 13
243.084174
 23
502.96823
 33
0.0
 14
243.084174
 24
102.96823
 34
0.0
 50
90.0
100
AcDbRotatedDimension
1001
ACAD
1000
DSTYLE
1002
{
1070
   371
1070
    13
1070
   372
1070
    13
1070
   170
1070
     0
1070
   277
1070
     2
1070
   284
1070
     8
1070
   278
1070
    44
1070
   146
1040
0.08
1070
   345
1005
16
1070
   347
1005
16
1070
   346
1005
16
1070
   344
1005
0
1070
   343
1005
0
1070
   172
1070
     1
1070
    76
1070
     0
1070
    75
1070
     0
1070
   282
1070
     0
1070
   281
1070
     0
1070
    71
1070
     0
1070
   144
1040
1.0
1070
    74
1070
     0
1070
   279
1070
     0
1070
   173
1070
     1
1070
   340
1005
114
1070
   271
1070
     3
1070
   272
1070
     2
1070
    77
1070
     1
1070
    73
1070
     0
1070
   171
1070
     3
1070
   274
1070
     4
1070
   177
1070
    18
1070
   176
1070
    18
1070
   178
1070
    18
1070
    78
1070
     8
1070
    48
1040
-0.1
1070
    41
1040
20.0
1070
   147
1040
7.5
1070
    42
1040
1.0
1070
    44
1040
2.0
1070
   140
1040
15.0
1002
}
1001
ACAD_DSTYLE_DIM_LINETYPE
1070
   380
1005
16
1001
ACAD_DSTYLE_DIM_EXT1_LINETYPE
1070
   381
1005
16
1001
ACAD_DSTYLE_DIM_EXT2_LINETYPE
1070
   382
1005
16
  0
DIMENSION
  5
19B
102
{ACAD_REACTORS
330
19D
102
}
102
{ACAD_XDICTIONARY
360
19C
102
}
330
107
100
AcDbEntity
 67
     1
  8
1
  6
Continuous
 62
    18
370
    13
100
AcDbDimension
  2
_U5
 10
1207.084174
 20
382.96823
 30
0.0
 11
1207.084174
 21
452.96823
 31
0.0
 70
   160
 71
     1
 42
140.0
 52
90.0
  3
Standard
100
AcDbAlignedDimension
 13
1141.084174
 23
522.96823
 33
0.0
 14
681.084174
 24
382.96823
 34
0.0
 50
90.0
100
AcDbRotatedDimension
1001
ACAD
1000
DSTYLE
1002
{
1070
   371
1070
    13
1070
   372
1070
    13
1070
   170
1070
     0
1070
   277
1070
     2
1070
   284
1070
     8
1070
   278
1070
    44
1070
   146
1040
0.08
1070
   345
1005
16
1070
   347
1005
16
1070
   346
1005
16
1070
   344
1005
0
1070
   343
1005
0
1070
   172
1070
     1
1070
    76
1070
     0
1070
    75
1070
     0
1070
   282
1070
     0
1070
   281
1070
     0
1070
    71
1070
     0
1070
   144
1040
1.0
1070
    74
1070
     0
1070
   279
1070
     0
1070
   173
1070
     1
1070
   340
1005
114
1070
   271
1070
     3
1070
   272
1070
     2
1070
    77
1070
     1
1070
    73
1070
     0
1070
   171
1070
     3
1070
   274
1070
     4
1070
   177
1070
    18
1070
   176
1070
    18
1070
   178
1070
    18
1070
    78
1070
     8
1070
    48
1040
-0.1
1070
    41
1040
20.0
1070
   147
1040
7.5
1070
    42
1040
1.0
1070
    44
1040
2.0
1070
   140
1040
15.0
1002
}
1001
ACAD_DSTYLE_DIM_LINETYPE
1070
   380
1005
16
1001
ACAD_DSTYLE_DIM_EXT1_LINETYPE
1070
   381
1005
16
1001
ACAD_DSTYLE_DIM_EXT2_LINETYPE
1070
   382
1005
16
  0
DIMENSION
  5
1B3
102
{ACAD_REACTORS
330
1B5
102
}
102
{ACAD_XDICTIONARY
360
1B4
102
}
330
107
100
AcDbEntity
 67
     1
  8
1
  6
Continuous
 62
    18
370
    13
100
AcDbDimension
  2
_U6
 10
183.084174
 20
718.182584
 30
0.0
 11
183.084174
 21
820.90442
 31
0.0
 70
   160
 71
     1
 42
205.44367
 52
90.0
  3
Standard
100
AcDbAlignedDimension
 13
211.584174
 23
923.626255
 33
0.0
 14
624.675875
 24
718.182584
 34
0.0
 50
90.0
100
AcDbRotatedDimension
1001
ACAD
1000
DSTYLE
1002
{
1070
   371
1070
    13
1070
   372
1070
    13
1070
   170
1070
     0
1070
   277
1070
     2
1070
   284
1070
     8
1070
   278
1070
    44
1070
   146
1040
0.08
1070
   345
1005
16
1070
   347
1005
16
1070
   346
1005
16
1070
   344
1005
0
1070
   343
1005
0
1070
   172
1070
     1
1070
    76
1070
     0
1070
    75
1070
     0
1070
   282
1070
     0
1070
   281
1070
     0
1070
    71
1070
     0
1070
   144
1040
1.0
1070
    74
1070
     0
1070
   279
1070
     0
1070
   173
1070
     1
1070
   340
1005
114
1070
   271
1070
     0
1070
   272
1070
     2
1070
    77
1070
     1
1070
    73
1070
     0
1070
   171
1070
     3
1070
   274
1070
     4
1070
   177
1070
    18
1070
   176
1070
    18
1070
   178
1070
    18
1070
    78
1070
     8
1070
    48
1040
-0.1
1070
    41
1040
20.0
1070
   147
1040
7.5
1070
    42
1040
1.0
1070
    44
1040
2.0
1070
   140
1040
15.0
1002
}
1001
ACAD_DSTYLE_DIM_LINETYPE
1070
   380
1005
16
1001
ACAD_DSTYLE_DIM_EXT1_LINETYPE
1070
   381
1005
16
1001
ACAD_DSTYLE_DIM_EXT2_LINETYPE
1070
   382
1005
16
  0
INSERT
  5
1CD
330
107
100
AcDbEntity
 67
     1
  8
1
  6
Continuous
 62
    18
370
    35
100
AcDbBlockReference
  2
ASSORTED_DRAFT3
 10
0.0
 20
0.0
 30
0.0
  0
INSERT
  5
1D2
330
107
100
AcDbEntity
 67
     1
  8
1
  6
Continuous
 62
    18
370
    35
100
AcDbBlockReference
  2
ASSORTED_DRAFT4
 10
0.0
 20
0.0
 30
0.0
  0
ENDSEC
  0
SECTION
  2
OBJECTS
  0
DICTIONARY
  5
C
330
0
100
AcDbDictionary
281
     1
  3
ACAD_DETAILVIEWSTYLE
350
234
  3
ACAD_GROUP
350
D
  3
ACAD_LAYOUT
350
1A
  3
ACAD_MATERIAL
350
43
  3
ACAD_MLEADERSTYLE
350
5B
  3
ACAD_MLINESTYLE
350
17
  3
ACAD_PLOTSETTINGS
350
19
  3
ACAD_PLOTSTYLENAME
350
E
  3
ACAD_SCALELIST
350
47
  3
ACAD_SECTIONVIEWSTYLE
350
235
  3
ACAD_TABLESTYLE
350
59
  3
ACAD_VISUALSTYLE
350
2A
  3
ACDB_RECOMPOSE_DATA
350
231
  3
AcDbVariableDictionary
350
1F1
  0
DICTIONARY
  5
1EF
330
8
100
AcDbDictionary
280
     1
281
     1
  3
ACAD_XREC_ROUNDTRIP
360
1F0
  0
DICTIONARY
  5
1E6
330
10A
100
AcDbDictionary
280
     1
281
     1
  3
ACAD_XREC_ROUNDTRIP
360
1E7
  0
DICTIONARY
  5
1E8
330
10B
100
AcDbDictionary
280
     1
281
     1
  3
ACAD_XREC_ROUNDTRIP
360
1E9
  0
DICTIONARY
  5
1EA
330
10C
100
AcDbDictionary
280
     1
281
     1
  3
ACAD_XREC_ROUNDTRIP
360
1EB
  0
DICTIONARY
  5
123
330
122
100
AcDbDictionary
280
     1
281
     1
  3
ACAD_DIMASSOC
360
124
  0
DICTIONARY
  5
13C
330
13B
100
AcDbDictionary
280
     1
281
     1
  3
ACAD_DIMASSOC
360
13D
  0
DICTIONARY
  5
154
330
153
100
AcDbDictionary
280
     1
281
     1
  3
ACAD_DIMASSOC
360
155
  0
DICTIONARY
  5
16C
330
16B
100
AcDbDictionary
280
     1
281
     1
  3
ACAD_DIMASSOC
360
16D
  0
DICTIONARY
  5
184
330
183
100
AcDbDictionary
280
     1
281
     1
  3
ACAD_DIMASSOC
360
185
  0
DICTIONARY
  5
19C
330
19B
100
AcDbDictionary
280
     1
281
     1
  3
ACAD_DIMASSOC
360
19D
  0
DICTIONARY
  5
1B4
330
1B3
100
AcDbDictionary
280
     1
281
     1
  3
ACAD_DIMASSOC
360
1B5
  0
DICTIONARY
  5
234
102
{ACAD_REACTORS
330
C
102
}
330
C
100
AcDbDictionary
281
     1
  0
DICTIONARY
  5
D
102
{ACAD_REACTORS
330
C
102
}
330
C
100
AcDbDictionary
281
     1
  0
DICTIONARY
  5
1A
102
{ACAD_REACTORS
330
C
102
}
330
C
100
AcDbDictionary
281
     1
  3
Model
350
22
  3
Sheet 2
350
1D5
  0
DICTIONARY
  5
43
102
{ACAD_REACTORS
330
C
102
}
330
C
100
AcDbDictionary
281
     1
  3
ByBlock
350
45
  3
ByLayer
350
44
  3
Global
350
46
  0
DICTIONARY
  5
5B
102
{ACAD_REACTORS
330
C
102
}
330
C
100
AcDbDictionary
281
     1
  3
Standard
350
5C
  0
DICTIONARY
  5
17
102
{ACAD_REACTORS
330
C
102
}
330
C
100
AcDbDictionary
281
     1
  3
Standard
350
18
  0
DICTIONARY
  5
19
102
{ACAD_REACTORS
330
C
102
}
330
C
100
AcDbDictionary
281
     1
  0
ACDBDICTIONARYWDFLT
  5
E
102
{ACAD_REACTORS
330
C
102
}
330
C
100
AcDbDictionary
281
     1
  3
Normal
350
F
100
AcDbDictionaryWithDefault
340
F
  0
DICTIONARY
  5
47
102
{ACAD_REACTORS
330
C
102
}
330
C
100
AcDbDictionary
281
     1
  3
A0
350
48
  3
A1
350
49
  3
A2
350
4A
  3
A3
350
4B
  3
A4
350
4C
  3
A5
350
4D
  3
A6
350
4E
  3
A7
350
4F
  3
A8
350
50
  3
A9
350
51
  3
B1
350
52
  3
B2
350
53
  3
B3
350
54
  3
B4
350
55
  3
B5
350
56
  3
B6
350
57
  3
B7
350
58
  0
DICTIONARY
  5
235
102
{ACAD_REACTORS
330
C
102
}
330
C
100
AcDbDictionary
281
     1
  0
DICTIONARY
  5
59
102
{ACAD_REACTORS
330
C
102
}
330
C
100
AcDbDictionary
281
     1
  3
Standard
350
5A
  0
DICTIONARY
  5
2A
102
{ACAD_REACTORS
330
C
102
}
330
C
100
AcDbDictionary
281
     1
  3
2dWireframe
350
2F
  3
Basic
350
32
  3
Brighten
350
36
  3
ColorChange
350
3A
  3
Conceptual
350
34
  3
Dim
350
35
  3
EdgeColorOff
350
3D
  3
Facepattern
350
39
  3
Flat
350
2B
  3
FlatWithEdges
350
2C
  3
Gouraud
350
2D
  3
GouraudWithEdges
350
2E
  3
Hidden
350
31
  3
JitterOff
350
3B
  3
Linepattern
350
38
  3
OverhangOff
350
3C
  3
Realistic
350
33
  3
Shaded
350
42
  3
Shaded with edges
350
41
  3
Shades of Gray
350
3E
  3
Sketchy
350
3F
  3
Thicken
350
37
  3
Wireframe
350
30
  3
X-Ray
350
40
  0
XRECORD
  5
231
102
{ACAD_REACTORS
330
C
102
}
330
C
100
AcDbXrecord
280
     1
 90
        1
330
5A
  0
DICTIONARY
  5
1F1
102
{ACAD_REACTORS
330
C
102
}
330
C
100
AcDbDictionary
281
     1
  3
CANNOSCALE
350
1F2
  3
CMLEADERSTYLE
350
233
  3
CTABLESTYLE
350
232
  3
MSLTSCALE
350
1F3
  3
XCLIPFRAME
350
1F4
  0
XRECORD
  5
1F0
102
{ACAD_REACTORS
330
1EF
102
}
330
1EF
100
AcDbXrecord
280
     1
102
VTR_0.000_0.000_1.000_1.000_VISUALSTYLE
340
2F
102
VTR_0.000_0.000_1.000_1.000_GRIDDISPLAY
 70
     3
102
VTR_0.000_0.000_1.000_1.000_GRIDMAJOR
 70
     5
102
VTR_0.000_0.000_1.000_1.000_DEFAULTLIGHTING
280
     1
102
VTR_0.000_0.000_1.000_1.000_DEFAULTLIGHTINGTYPE
 70
     1
102
VTR_0.000_0.000_1.000_1.000_BRIGHTNESS
141
0.0
102
VTR_0.000_0.000_1.000_1.000_CONTRAST
142
0.0
102
VTR_0.000_0.000_0.500_1.000_VISUALSTYLE
340
2F
102
VTR_0.000_0.000_0.500_1.000_GRIDDISPLAY
 70
     3
102
VTR_0.000_0.000_0.500_1.000_GRIDMAJOR
 70
     5
102
VTR_0.000_0.000_0.500_1.000_DEFAULTLIGHTING
280
     1
102
VTR_0.000_0.000_0.500_1.000_DEFAULTLIGHTINGTYPE
 70
     1
102
VTR_0.000_0.000_0.500_1.000_BRIGHTNESS
141
0.0
102
VTR_0.000_0.000_0.500_1.000_CONTRAST
142
0.0
102
VTR_0.500_0.000_1.000_1.000_VISUALSTYLE
340
2F
102
VTR_0.500_0.000_1.000_1.000_GRIDDISPLAY
 70
     3
102
VTR_0.500_0.000_1.000_1.000_GRIDMAJOR
 70
     5
102
VTR_0.500_0.000_1.000_1.000_DEFAULTLIGHTING
280
     1
102
VTR_0.500_0.000_1.000_1.000_DEFAULTLIGHTINGTYPE
 70
     1
102
VTR_0.500_0.000_1.000_1.000_BRIGHTNESS
141
0.0
102
VTR_0.500_0.000_1.000_1.000_CONTRAST
142
0.0
102
VTR_0.000_0.500_1.000_1.000_VISUALSTYLE
340
2F
102
VTR_0.000_0.500_1.000_1.000_GRIDDISPLAY
 70
     3
102
VTR_0.000_0.500_1.000_1.000_GRIDMAJOR
 70
     5
102
VTR_0.000_0.500_1.000_1.000_DEFAULTLIGHTING
280
     1
102
VTR_0.000_0.500_1.000_1.000_DEFAULTLIGHTINGTYPE
 70
     1
102
VTR_0.000_0.500_1.000_1.000_BRIGHTNESS
141
0.0
102
VTR_0.000_0.500_1.000_1.000_CONTRAST
142
0.0
102
VTR_0.000_0.000_1.000_0.500_VISUALSTYLE
340
2F
102
VTR_0.000_0.000_1.000_0.500_GRIDDISPLAY
 70
     3
102
VTR_0.000_0.000_1.000_0.500_GRIDMAJOR
 70
     5
102
VTR_0.000_0.000_1.000_0.500_DEFAULTLIGHTING
280
     1
102
VTR_0.000_0.000_1.000_0.500_DEFAULTLIGHTINGTYPE
 70
     1
102
VTR_0.000_0.000_1.000_0.500_BRIGHTNESS
141
0.0
102
VTR_0.000_0.000_1.000_0.500_CONTRAST
142
0.0
102
VTR_0.000_0.500_0.500_1.000_VISUALSTYLE
340
2F
102
VTR_0.000_0.500_0.500_1.000_GRIDDISPLAY
 70
     3
102
VTR_0.000_0.500_0.500_1.000_GRIDMAJOR
 70
     5
102
VTR_0.000_0.500_0.500_1.000_DEFAULTLIGHTING
280
     1
102
VTR_0.000_0.500_0.500_1.000_DEFAULTLIGHTINGTYPE
 70
     1
102
VTR_0.000_0.500_0.500_1.000_BRIGHTNESS
141
0.0
102
VTR_0.000_0.500_0.500_1.000_CONTRAST
142
0.0
102
VTR_0.000_0.000_0.500_0.500_VISUALSTYLE
340
2F
102
VTR_0.000_0.000_0.500_0.500_GRIDDISPLAY
 70
     3
102
VTR_0.000_0.000_0.500_0.500_GRIDMAJOR
 70
     5
102
VTR_0.000_0.000_0.500_0.500_DEFAULTLIGHTING
280
     1
102
VTR_0.000_0.000_0.500_0.500_DEFAULTLIGHTINGTYPE
 70
     1
102
VTR_0.000_0.000_0.500_0.500_BRIGHTNESS
141
0.0
102
VTR_0.000_0.000_0.500_0.500_CONTRAST
142
0.0
102
VTR_0.500_0.000_1.000_0.500_VISUALSTYLE
340
2F
102
VTR_0.500_0.000_1.000_0.500_GRIDDISPLAY
 70
     3
102
VTR_0.500_0.000_1.000_0.500_GRIDMAJOR
 70
     5
102
VTR_0.500_0.000_1.000_0.500_DEFAULTLIGHTING
280
     1
102
VTR_0.500_0.000_1.000_0.500_DEFAULTLIGHTINGTYPE
 70
     1
102
VTR_0.500_0.000_1.000_0.500_BRIGHTNESS
141
0.0
102
VTR_0.500_0.000_1.000_0.500_CONTRAST
142
0.0
102
VTR_0.500_0.500_1.000_1.000_VISUALSTYLE
340
2F
102
VTR_0.500_0.500_1.000_1.000_GRIDDISPLAY
 70
     3
102
VTR_0.500_0.500_1.000_1.000_GRIDMAJOR
 70
     5
102
VTR_0.500_0.500_1.000_1.000_DEFAULTLIGHTING
280
     1
102
VTR_0.500_0.500_1.000_1.000_DEFAULTLIGHTINGTYPE
 70
     1
102
VTR_0.500_0.500_1.000_1.000_BRIGHTNESS
141
0.0
102
VTR_0.500_0.500_1.000_1.000_CONTRAST
142
0.0
102
VTR_0.000_0.500_0.333_1.000_VISUALSTYLE
340
2F
102
VTR_0.000_0.500_0.333_1.000_GRIDDISPLAY
 70
     3
102
VTR_0.000_0.500_0.333_1.000_GRIDMAJOR
 70
     5
102
VTR_0.000_0.500_0.333_1.000_DEFAULTLIGHTING
280
     1
102
VTR_0.000_0.500_0.333_1.000_DEFAULTLIGHTINGTYPE
 70
     1
102
VTR_0.000_0.500_0.333_1.000_BRIGHTNESS
141
0.0
102
VTR_0.000_0.500_0.333_1.000_CONTRAST
142
0.0
102
VTR_0.000_0.000_0.333_0.500_VISUALSTYLE
340
2F
102
VTR_0.000_0.000_0.333_0.500_GRIDDISPLAY
 70
     3
102
VTR_0.000_0.000_0.333_0.500_GRIDMAJOR
 70
     5
102
VTR_0.000_0.000_0.333_0.500_DEFAULTLIGHTING
280
     1
102
VTR_0.000_0.000_0.333_0.500_DEFAULTLIGHTINGTYPE
 70
     1
102
VTR_0.000_0.000_0.333_0.500_BRIGHTNESS
141
0.0
102
VTR_0.000_0.000_0.333_0.500_CONTRAST
142
0.0
102
VTR_0.333_0.500_0.667_1.000_VISUALSTYLE
340
2F
102
VTR_0.333_0.500_0.667_1.000_GRIDDISPLAY
 70
     3
102
VTR_0.333_0.500_0.667_1.000_GRIDMAJOR
 70
     5
102
VTR_0.333_0.500_0.667_1.000_DEFAULTLIGHTING
280
     1
102
VTR_0.333_0.500_0.667_1.000_DEFAULTLIGHTINGTYPE
 70
     1
102
VTR_0.333_0.500_0.667_1.000_BRIGHTNESS
141
0.0
102
VTR_0.333_0.500_0.667_1.000_CONTRAST
142
0.0
102
VTR_0.333_0.000_0.667_0.500_VISUALSTYLE
340
2F
102
VTR_0.333_0.000_0.667_0.500_GRIDDISPLAY
 70
     3
102
VTR_0.333_0.000_0.667_0.500_GRIDMAJOR
 70
     5
102
VTR_0.333_0.000_0.667_0.500_DEFAULTLIGHTING
280
     1
102
VTR_0.333_0.000_0.667_0.500_DEFAULTLIGHTINGTYPE
 70
     1
102
VTR_0.333_0.000_0.667_0.500_BRIGHTNESS
141
0.0
102
VTR_0.333_0.000_0.667_0.500_CONTRAST
142
0.0
102
VTR_0.667_0.500_1.000_1.000_VISUALSTYLE
340
2F
102
VTR_0.667_0.500_1.000_1.000_GRIDDISPLAY
 70
     3
102
VTR_0.667_0.500_1.000_1.000_GRIDMAJOR
 70
     5
102
VTR_0.667_0.500_1.000_1.000_DEFAULTLIGHTING
280
     1
102
VTR_0.667_0.500_1.000_1.000_DEFAULTLIGHTINGTYPE
 70
     1
102
VTR_0.667_0.500_1.000_1.000_BRIGHTNESS
141
0.0
102
VTR_0.667_0.500_1.000_1.000_CONTRAST
142
0.0
102
VTR_0.667_0.000_1.000_0.500_VISUALSTYLE
340
2F
102
VTR_0.667_0.000_1.000_0.500_GRIDDISPLAY
 70
     3
102
VTR_0.667_0.000_1.000_0.500_GRIDMAJOR
 70
     5
102
VTR_0.667_0.000_1.000_0.500_DEFAULTLIGHTING
280
     1
102
VTR_0.667_0.000_1.000_0.500_DEFAULTLIGHTINGTYPE
 70
     1
102
VTR_0.667_0.000_1.000_0.500_BRIGHTNESS
141
0.0
102
VTR_0.667_0.000_1.000_0.500_CONTRAST
142
0.0
  0
XRECORD
  5
1E7
102
{ACAD_REACTORS
330
1E6
102
}
330
1E6
100
AcDbXrecord
280
     1
102
VISUALSTYLE
340
2F
102
GRIDDISPLAY
 70
     2
102
GRIDMAJOR
 70
     5
102
DEFAULTLIGHTING
280
     1
102
DEFAULTLIGHTINGTYPE
 70
     1
102
BRIGHTNESS
141
0.0
102
CONTRAST
142
0.0
  0
XRECORD
  5
1E9
102
{ACAD_REACTORS
330
1E8
102
}
330
1E8
100
AcDbXrecord
280
     1
102
VISUALSTYLE
340
2F
102
GRIDDISPLAY
 70
     2
102
GRIDMAJOR
 70
     5
102
DEFAULTLIGHTING
280
     1
102
DEFAULTLIGHTINGTYPE
 70
     1
102
BRIGHTNESS
141
0.0
102
CONTRAST
142
0.0
  0
XRECORD
  5
1EB
102
{ACAD_REACTORS
330
1EA
102
}
330
1EA
100
AcDbXrecord
280
     1
102
VISUALSTYLE
340
2F
102
GRIDDISPLAY
 70
     2
102
GRIDMAJOR
 70
     5
102
DEFAULTLIGHTING
280
     1
102
DEFAULTLIGHTINGTYPE
 70
     1
102
BRIGHTNESS
141
0.0
102
CONTRAST
142
0.0
  0
DIMASSOC
  5
124
102
{ACAD_REACTORS
330
123
102
}
330
123
100
AcDbDimAssoc
330
122
 90
        3
 70
     0
 71
     1
  1
AcDbOsnapPointRef
 72
     4
331
10B
331
6B
 73
     3
 91
        1
 40
0.0
 10
0.0
 20
185.764473
 30
0.0
 75
     0
  1
AcDbOsnapPointRef
 72
     1
331
10B
331
6F
 73
     2
 91
        2
 40
1.0
 10
470.0
 20
-104.235527
 30
0.0
 75
     0
  0
DIMASSOC
  5
13D
102
{ACAD_REACTORS
330
13C
102
}
330
13C
100
AcDbDimAssoc
330
13B
 90
        3
 70
     0
 71
     1
  1
AcDbOsnapPointRef
 72
    13
331
10B
331
72
 73
     2
 91
        1
 40
0.0
 10
-460.0
 20
325.764473
 30
0.0
 75
     0
  1
AcDbOsnapPointRef
 72
     1
331
10B
331
6E
 73
     2
 91
        2
 40
1.0
 10
-460.0
 20
-114.235527
 30
0.0
 75
     0
  0
DIMASSOC
  5
155
102
{ACAD_REACTORS
330
154
102
}
330
154
100
AcDbDimAssoc
330
153
 90
        3
 70
     0
 71
     1
  1
AcDbOsnapPointRef
 72
     1
331
10B
331
6D
 73
     2
 91
        1
 40
1.0
 10
-470.0
 20
315.764473
 30
0.0
 75
     0
  1
AcDbOsnapPointRef
 72
    13
331
10B
331
6F
 73
     2
 91
        2
 40
0.0
 10
470.0
 20
315.764473
 30
0.0
 75
     0
  0
DIMASSOC
  5
16D
102
{ACAD_REACTORS
330
16C
102
}
330
16C
100
AcDbDimAssoc
330
16B
 90
        3
 70
     0
 71
     1
  1
AcDbOsnapPointRef
 72
     1
331
10B
331
74
 73
     2
 91
        1
 40
1.0
 10
-450.0
 20
293.764473
 30
0.0
 75
     0
  1
AcDbOsnapPointRef
 72
    13
331
10B
331
70
 73
     2
 91
        2
 40
0.0
 10
450.0
 20
293.764473
 30
0.0
 75
     0
  0
DIMASSOC
  5
185
102
{ACAD_REACTORS
330
184
102
}
330
184
100
AcDbDimAssoc
330
183
 90
        3
 70
     0
 71
     1
  1
AcDbOsnapPointRef
 72
    13
331
10B
331
73
 73
     2
 91
        1
 40
0.0
 10
-438.0
 20
305.764473
 30
0.0
 75
     0
  1
AcDbOsnapPointRef
 72
     1
331
10B
331
71
 73
     2
 91
        2
 40
1.0
 10
-438.0
 20
-94.235527
 30
0.0
 75
     0
  0
DIMASSOC
  5
19D
102
{ACAD_REACTORS
330
19C
102
}
330
19C
100
AcDbDimAssoc
330
19B
 90
        3
 70
     0
 71
     1
  1
AcDbOsnapPointRef
 72
     1
331
10B
331
72
 73
     2
 91
        1
 40
1.0
 10
460.0
 20
325.764473
 30
0.0
 75
     0
  1
AcDbOsnapPointRef
 72
     4
331
10B
331
6C
 73
     3
 91
        2
 40
0.0
 10
0.0
 20
185.764473
 30
0.0
 75
     0
  0
DIMASSOC
  5
1B5
102
{ACAD_REACTORS
330
1B4
102
}
330
1B4
100
AcDbDimAssoc
330
1B3
 90
        3
 70
     0
 71
     1
  1
AcDbOsnapPointRef
 72
    13
331
10C
331
86
 73
     2
 91
        1
 40
0.0
 10
-469.5
 20
0.0
 30
105.764473
 75
     0
  1
AcDbOsnapPointRef
 72
    13
331
10C
331
CA
 73
     2
 91
        2
 40
0.0
 10
-56.408299
 20
0.0
 30
-99.679198
 75
     0
  0
LAYOUT
  5
22
102
{ACAD_REACTORS
330
1A
102
}
330
1A
100
AcDbPlotSettings
  1

  2
none_device
  4
Letter_(8.50_x_11.00_Inches)
  6

 40
6.35
 41
6.35
 42
6.350005
 43
6.350005
 44
215.9
 45
279.4
 46
0.0
 47
0.0
 48
0.0
 49
0.0
140
0.0
141
0.0
142
1.0
143
1.0
 70
  1712
 72
     0
 73
     0
 74
     0
  7

 75
     0
 76
     0
 77
     2
 78
   300
147
1.0
148
0.0
149
0.0
100
AcDbLayout
  1
Model
 70
     1
 71
     0
 10
-0.5
 20
-0.5
 11
5.0
 21
5.0
 12
0.0
 22
0.0
 32
0.0
 14
-0.5
 24
-0.5
 34
-0.5
 15
5.0
 25
5.0
 35
5.0
146
0.0
 13
0.0
 23
0.0
 33
0.0
 16
1.0
 26
0.0
 36
0.0
 17
0.0
 27
1.0
 37
0.0
 76
     0
330
1F
331
29
  0
LAYOUT
  5
1D5
102
{ACAD_REACTORS
330
1A
102
}
330
1A
100
AcDbPlotSettings
  1

  2
none_device
  4
ARCH_E_(48.00_x_36.00_Inches)
  6

 40
6.35
 41
19.05
 42
6.349975
 43
19.049987
 44
1219.2
 45
914.4
 46
33.720694
 47
0.0
 48
0.0
 49
0.0
140
1340.0
141
1040.0
142
1.0
143
1.141732
 70
   692
 72
     1
 73
     0
 74
     1
  7

 75
     0
 76
     0
 77
     2
 78
   300
147
0.875862
148
0.5
149
0.5
100
AcDbLayout
  1
Sheet 2
 70
     1
 71
     1
 10
0.0
 20
0.0
 11
1300.0
 21
1000.0
 12
0.0
 22
0.0
 32
0.0
 14
0.0
 24
0.0
 34
0.0
 15
1300.0
 25
1000.0
 35
0.0
146
0.0
 13
0.0
 23
0.0
 33
0.0
 16
1.0
 26
0.0
 36
0.0
 17
0.0
 27
1.0
 37
0.0
 76
     0
330
107
331
10A
  0
MATERIAL
  5
45
102
{ACAD_REACTORS
330
43
102
}
102
{ACAD_XDICTIONARY
360
227
102
}
330
43
100
AcDbMaterial
  1
ByBlock
  0
MATERIAL
  5
44
102
{ACAD_REACTORS
330
43
102
}
102
{ACAD_XDICTIONARY
360
225
102
}
330
43
100
AcDbMaterial
  1
ByLayer
  0
MATERIAL
  5
46
102
{ACAD_REACTORS
330
43
102
}
102
{ACAD_XDICTIONARY
360
229
102
}
330
43
100
AcDbMaterial
  1
Global
  0
MLEADERSTYLE
  5
5C
102
{ACAD_REACTORS
330
5B
102
}
102
{ACAD_XDICTIONARY
360
22F
102
}
330
5B
100
AcDbMLeaderStyle
170
     2
171
     1
172
     0
 90
        2
 40
0.0
 41
0.0
173
     1
 91
-1056964608
340
14
 92
       -2
290
     1
 42
0.09
291
     1
 43
0.36
  3
Standard
341
0
 44
0.18
300

342
11
174
     1
178
     6
175
     1
176
     0
 93
-1056964608
 45
0.18
292
     0
297
     0
 46
0.18
343
0
 94
-1056964608
 47
1.0
 49
1.0
140
1.0
293
     1
141
0.0
294
     1
177
     0
142
1.0
295
     0
296
     0
143
0.125
1001
ACAD_MLEADERVER
1070
     2
  0
MLINESTYLE
  5
18
102
{ACAD_REACTORS
330
17
102
}
330
17
100
AcDbMlineStyle
  2
Standard
 70
     0
  3

 62
   256
 51
90.0
 52
90.0
 71
     2
 49
0.5
 62
   256
  6
BYLAYER
 49
-0.5
 62
   256
  6
BYLAYER
  0
ACDBPLACEHOLDER
  5
F
102
{ACAD_REACTORS
330
E
102
}
330
E
  0
SCALE
  5
48
102
{ACAD_REACTORS
330
47
102
}
330
47
100
AcDbScale
 70
     0
300
1:1
140
1.0
141
1.0
290
     1
  0
SCALE
  5
49
102
{ACAD_REACTORS
330
47
102
}
330
47
100
AcDbScale
 70
     0
300
1/128" = 1'-0"
140
0.007812
141
12.0
290
     0
  0
SCALE
  5
4A
102
{ACAD_REACTORS
330
47
102
}
330
47
100
AcDbScale
 70
     0
300
1/64" = 1'-0"
140
0.015625
141
12.0
290
     0
  0
SCALE
  5
4B
102
{ACAD_REACTORS
330
47
102
}
330
47
100
AcDbScale
 70
     0
300
1/32" = 1'-0"
140
0.03125
141
12.0
290
     0
  0
SCALE
  5
4C
102
{ACAD_REACTORS
330
47
102
}
330
47
100
AcDbScale
 70
     0
300
1/16" = 1'-0"
140
0.0625
141
12.0
290
     0
  0
SCALE
  5
4D
102
{ACAD_REACTORS
330
47
102
}
330
47
100
AcDbScale
 70
     0
300
3/32" = 1'-0"
140
0.09375
141
12.0
290
     0
  0
SCALE
  5
4E
102
{ACAD_REACTORS
330
47
102
}
330
47
100
AcDbScale
 70
     0
300
1/8" = 1'-0"
140
0.125
141
12.0
290
     0
  0
SCALE
  5
4F
102
{ACAD_REACTORS
330
47
102
}
330
47
100
AcDbScale
 70
     0
300
3/16" = 1'-0"
140
0.1875
141
12.0
290
     0
  0
SCALE
  5
50
102
{ACAD_REACTORS
330
47
102
}
330
47
100
AcDbScale
 70
     0
300
1/4" = 1'-0"
140
0.25
141
12.0
290
     0
  0
SCALE
  5
51
102
{ACAD_REACTORS
330
47
102
}
330
47
100
AcDbScale
 70
     0
300
3/8" = 1'-0"
140
0.375
141
12.0
290
     0
  0
SCALE
  5
52
102
{ACAD_REACTORS
330
47
102
}
330
47
100
AcDbScale
 70
     0
300
1/2" = 1'-0"
140
0.5
141
12.0
290
     0
  0
SCALE
  5
53
102
{ACAD_REACTORS
330
47
102
}
330
47
100
AcDbScale
 70
     0
300
3/4" = 1'-0"
140
0.75
141
12.0
290
     0
  0
SCALE
  5
54
102
{ACAD_REACTORS
330
47
102
}
330
47
100
AcDbScale
 70
     0
300
1" = 1'-0"
140
1.0
141
12.0
290
     0
  0
SCALE
  5
55
102
{ACAD_REACTORS
330
47
102
}
330
47
100
AcDbScale
 70
     0
300
1-1/2" = 1'-0"
140
1.5
141
12.0
290
     0
  0
SCALE
  5
56
102
{ACAD_REACTORS
330
47
102
}
330
47
100
AcDbScale
 70
     0
300
3" = 1'-0"
140
3.0
141
12.0
290
     0
  0
SCALE
  5
57
102
{ACAD_REACTORS
330
47
102
}
330
47
100
AcDbScale
 70
     0
300
6" = 1'-0"
140
6.0
141
12.0
290
     0
  0
SCALE
  5
58
102
{ACAD_REACTORS
330
47
102
}
330
47
100
AcDbScale
 70
     0
300
1'-0" = 1'-0"
140
12.0
141
12.0
290
     0
  0
TABLESTYLE
  5
5A
102
{ACAD_REACTORS
330
59
102
}
102
{ACAD_XDICTIONARY
360
22B
102
}
330
59
100
AcDbTableStyle
  3
Standard
 70
     0
 71
     0
 40
0.06
 41
0.06
280
     0
281
     0
  7
Standard
140
0.18
170
     2
 62
     0
 63
   257
283
     0
274
    -2
284
     1
 64
     0
275
    -2
285
     1
 65
     0
276
    -2
286
     1
 66
     0
277
    -2
287
     1
 67
     0
278
    -2
288
     1
 68
     0
279
    -2
289
     1
 69
     0
  7
Standard
140
0.25
170
     5
 62
     0
 63
   257
283
     0
274
    -2
284
     1
 64
     0
275
    -2
285
     1
 65
     0
276
    -2
286
     1
 66
     0
277
    -2
287
     1
 67
     0
278
    -2
288
     1
 68
     0
279
    -2
289
     1
 69
     0
  7
Standard
140
0.18
170
     5
 62
     0
 63
   257
283
     0
274
    -2
284
     1
 64
     0
275
    -2
285
     1
 65
     0
276
    -2
286
     1
 66
     0
277
    -2
287
     1
 67
     0
278
    -2
288
     1
 68
     0
279
    -2
289
     1
 69
     0
  0
VISUALSTYLE
  5
2F
102
{ACAD_REACTORS
330
2A
102
}
102
{ACAD_XDICTIONARY
360
1FD
102
}
330
2A
100
AcDbVisualStyle
  2
2dWireframe
 70
     4
 71
     0
 72
     2
 73
     0
 90
        0
 40
0.6
 41
30.0
 62
     5
 63
     7
421
 16777215
 74
     1
 91
        4
 64
     7
 65
   257
 75
     1
175
     1
 42
1.0
 92
        0
 66
   257
 43
1.0
 76
     1
 77
     6
 78
     2
 67
     7
 79
     5
170
     0
171
     0
290
     0
174
     0
 93
        1
 44
0.0
173
     0
291
     0
 45
0.0
1001
ACAD
1000
AcDbSavedByObjectVersion
1070
     0
  0
VISUALSTYLE
  5
32
102
{ACAD_REACTORS
330
2A
102
}
102
{ACAD_XDICTIONARY
360
203
102
}
330
2A
100
AcDbVisualStyle
  2
Basic
 70
     7
 71
     1
 72
     0
 73
     1
 90
        0
 40
0.6
 41
30.0
 62
     5
 63
     7
421
 16777215
 74
     0
 91
        4
 64
     7
 65
   257
 75
     1
175
     1
 42
1.0
 92
        8
 66
     7
 43
1.0
 76
     1
 77
     6
 78
     2
 67
     7
 79
     5
170
     0
171
     0
290
     0
174
     0
 93
        1
 44
0.0
173
     0
291
     1
 45
0.0
1001
ACAD
1000
AcDbSavedByObjectVersion
1070
     0
  0
VISUALSTYLE
  5
36
102
{ACAD_REACTORS
330
2A
102
}
102
{ACAD_XDICTIONARY
360
20B
102
}
330
2A
100
AcDbVisualStyle
  2
Brighten
 70
    12
 71
     2
 72
     2
 73
     0
 90
        0
 40
0.6
 41
30.0
 62
     5
 63
     7
421
 16777215
 74
     1
 91
        4
 64
     7
 65
   257
 75
     1
175
     1
 42
1.0
 92
        8
 66
     7
 43
1.0
 76
     1
 77
     6
 78
     2
 67
     7
 79
     5
170
     0
171
     0
290
     0
174
     0
 93
        1
 44
50.0
173
     0
291
     1
 45
0.0
1001
ACAD
1000
AcDbSavedByObjectVersion
1070
     0
  0
VISUALSTYLE
  5
3A
102
{ACAD_REACTORS
330
2A
102
}
102
{ACAD_XDICTIONARY
360
213
102
}
330
2A
100
AcDbVisualStyle
  2
ColorChange
 70
    16
 71
     2
 72
     2
 73
     3
 90
        0
 40
0.6
 41
30.0
 62
     5
 63
     8
421
  8421504
 74
     1
 91
        4
 64
     7
 65
   257
 75
     1
175
     1
 42
1.0
 92
        8
 66
     8
424
  8421504
 43
1.0
 76
     1
 77
     6
 78
     2
 67
     7
 79
     5
170
     0
171
     0
290
     0
174
     0
 93
        1
 44
0.0
173
     0
291
     1
 45
0.0
1001
ACAD
1000
AcDbSavedByObjectVersion
1070
     0
  0
VISUALSTYLE
  5
34
102
{ACAD_REACTORS
330
2A
102
}
102
{ACAD_XDICTIONARY
360
207
102
}
330
2A
100
AcDbVisualStyle
  2
Conceptual
 70
     9
 71
     3
 72
     2
 73
     0
 90
        0
 40
0.6
 41
30.0
 62
     5
 63
     7
421
 16777215
 74
     2
 91
        2
 64
     7
 65
   257
 75
     1
175
     1
 42
179.0
 92
        8
 66
     7
 43
1.0
 76
     1
 77
     6
 78
     2
 67
     7
 79
     3
170
     0
171
     0
290
     0
174
     0
 93
        1
 44
0.0
173
     0
291
     0
 45
0.0
1001
ACAD
1000
AcDbSavedByObjectVersion
1070
     0
  0
VISUALSTYLE
  5
35
102
{ACAD_REACTORS
330
2A
102
}
102
{ACAD_XDICTIONARY
360
209
102
}
330
2A
100
AcDbVisualStyle
  2
Dim
 70
    11
 71
     2
 72
     2
 73
     0
 90
        0
 40
0.6
 41
30.0
 62
     5
 63
     7
421
 16777215
 74
     1
 91
        4
 64
     7
 65
   257
 75
     1
175
     1
 42
1.0
 92
        8
 66
     7
 43
1.0
 76
     1
 77
     6
 78
     2
 67
     7
 79
     5
170
     0
171
     0
290
     0
174
     0
 93
        1
 44
-50.0
173
     0
291
     1
 45
0.0
1001
ACAD
1000
AcDbSavedByObjectVersion
1070
     0
  0
VISUALSTYLE
  5
3D
102
{ACAD_REACTORS
330
2A
102
}
102
{ACAD_XDICTIONARY
360
219
102
}
330
2A
100
AcDbVisualStyle
  2
EdgeColorOff
 70
    22
 71
     2
 72
     2
 73
     0
 90
        0
 40
0.6
 41
30.0
 62
     5
 63
     7
421
 16777215
 74
     1
 91
        4
 64
     7
 65
   257
 75
     1
175
     1
 42
1.0
 92
        8
 66
     7
 43
1.0
 76
     1
 77
     6
 78
     2
 67
     7
 79
     5
170
     0
171
     0
290
     0
174
     0
 93
        1
 44
0.0
173
     0
291
     1
 45
0.0
1001
ACAD
1000
AcDbSavedByObjectVersion
1070
     0
  0
VISUALSTYLE
  5
39
102
{ACAD_REACTORS
330
2A
102
}
102
{ACAD_XDICTIONARY
360
211
102
}
330
2A
100
AcDbVisualStyle
  2
Facepattern
 70
    15
 71
     2
 72
     2
 73
     0
 90
        0
 40
0.6
 41
30.0
 62
     5
 63
     7
421
 16777215
 74
     1
 91
        4
 64
     7
 65
   257
 75
     1
175
     1
 42
1.0
 92
        8
 66
     7
 43
1.0
 76
     1
 77
     6
 78
     2
 67
     7
 79
     5
170
     0
171
     0
290
     0
174
     0
 93
        1
 44
0.0
173
     0
291
     1
 45
0.0
1001
ACAD
1000
AcDbSavedByObjectVersion
1070
     0
  0
VISUALSTYLE
  5
2B
102
{ACAD_REACTORS
330
2A
102
}
102
{ACAD_XDICTIONARY
360
1F5
102
}
330
2A
100
AcDbVisualStyle
  2
Flat
 70
     0
 71
     2
 72
     1
 73
     1
 90
        2
 40
0.6
 41
30.0
 62
     5
 63
     7
421
 16777215
 74
     0
 91
        0
 64
     7
 65
   257
 75
     1
175
     1
 42
1.0
 92
        8
 66
     7
 43
1.0
 76
     1
 77
     6
 78
     2
 67
     7
 79
     5
170
     0
171
     0
290
     0
174
     0
 93
       13
 44
0.0
173
     0
291
     1
 45
0.0
1001
ACAD
1000
AcDbSavedByObjectVersion
1070
     0
  0
VISUALSTYLE
  5
2C
102
{ACAD_REACTORS
330
2A
102
}
102
{ACAD_XDICTIONARY
360
1F7
102
}
330
2A
100
AcDbVisualStyle
  2
FlatWithEdges
 70
     1
 71
     2
 72
     1
 73
     1
 90
        2
 40
0.6
 41
30.0
 62
     5
 63
     7
421
 16777215
 74
     1
 91
        0
 64
     7
 65
   257
 75
     1
175
     1
 42
1.0
 92
        0
 66
   257
 43
1.0
 76
     1
 77
     6
 78
     2
 67
     7
 79
     5
170
     0
171
     0
290
     0
174
     0
 93
       13
 44
0.0
173
     0
291
     1
 45
0.0
1001
ACAD
1000
AcDbSavedByObjectVersion
1070
     0
  0
VISUALSTYLE
  5
2D
102
{ACAD_REACTORS
330
2A
102
}
102
{ACAD_XDICTIONARY
360
1F9
102
}
330
2A
100
AcDbVisualStyle
  2
Gouraud
 70
     2
 71
     2
 72
     2
 73
     1
 90
        2
 40
0.6
 41
30.0
 62
     5
 63
     7
421
 16777215
 74
     0
 91
        0
 64
     7
 65
   257
 75
     1
175
     1
 42
1.0
 92
        0
 66
     7
 43
1.0
 76
     1
 77
     6
 78
     2
 67
     7
 79
     5
170
     0
171
     0
290
     0
174
     0
 93
       13
 44
0.0
173
     0
291
     1
 45
0.0
1001
ACAD
1000
AcDbSavedByObjectVersion
1070
     0
  0
VISUALSTYLE
  5
2E
102
{ACAD_REACTORS
330
2A
102
}
102
{ACAD_XDICTIONARY
360
1FB
102
}
330
2A
100
AcDbVisualStyle
  2
GouraudWithEdges
 70
     3
 71
     2
 72
     2
 73
     1
 90
        2
 40
0.6
 41
30.0
 62
     5
 63
     7
421
 16777215
 74
     1
 91
        0
 64
     7
 65
   257
 75
     1
175
     1
 42
1.0
 92
        0
 66
   257
 43
1.0
 76
     1
 77
     6
 78
     2
 67
     7
 79
     5
170
     0
171
     0
290
     0
174
     0
 93
       13
 44
0.0
173
     0
291
     1
 45
0.0
1001
ACAD
1000
AcDbSavedByObjectVersion
1070
     0
  0
VISUALSTYLE
  5
31
102
{ACAD_REACTORS
330
2A
102
}
102
{ACAD_XDICTIONARY
360
201
102
}
330
2A
100
AcDbVisualStyle
  2
Hidden
 70
     6
 71
     1
 72
     2
 73
     2
 90
        0
 40
0.6
 41
30.0
 62
     5
 63
     7
421
 16777215
 74
     2
 91
        2
 64
     7
 65
   257
 75
     2
175
     1
 42
40.0
 92
        0
 66
   257
 43
1.0
 76
     1
 77
     6
 78
     2
 67
     7
 79
     3
170
     0
171
     0
290
     0
174
     0
 93
        1
 44
0.0
173
     0
291
     0
 45
0.0
1001
ACAD
1000
AcDbSavedByObjectVersion
1070
     0
  0
VISUALSTYLE
  5
3B
102
{ACAD_REACTORS
330
2A
102
}
102
{ACAD_XDICTIONARY
360
215
102
}
330
2A
100
AcDbVisualStyle
  2
JitterOff
 70
    20
 71
     2
 72
     2
 73
     0
 90
        0
 40
0.6
 41
30.0
 62
     5
 63
     7
421
 16777215
 74
     1
 91
        4
 64
     7
 65
   257
 75
     1
175
     1
 42
1.0
 92
       10
 66
     7
 43
1.0
 76
     1
 77
     6
 78
     2
 67
     7
 79
     5
170
     0
171
     0
290
     0
174
     0
 93
        1
 44
0.0
173
     0
291
     1
 45
0.0
1001
ACAD
1000
AcDbSavedByObjectVersion
1070
     0
  0
VISUALSTYLE
  5
38
102
{ACAD_REACTORS
330
2A
102
}
102
{ACAD_XDICTIONARY
360
20F
102
}
330
2A
100
AcDbVisualStyle
  2
Linepattern
 70
    14
 71
     2
 72
     2
 73
     0
 90
        0
 40
0.6
 41
30.0
 62
     5
 63
     7
421
 16777215
 74
     1
 91
        4
 64
     7
 65
   257
 75
     7
175
     7
 42
1.0
 92
        8
 66
     7
 43
1.0
 76
     1
 77
     6
 78
     2
 67
     7
 79
     5
170
     0
171
     0
290
     0
174
     0
 93
        1
 44
0.0
173
     0
291
     1
 45
0.0
1001
ACAD
1000
AcDbSavedByObjectVersion
1070
     0
  0
VISUALSTYLE
  5
3C
102
{ACAD_REACTORS
330
2A
102
}
102
{ACAD_XDICTIONARY
360
217
102
}
330
2A
100
AcDbVisualStyle
  2
OverhangOff
 70
    21
 71
     2
 72
     2
 73
     0
 90
        0
 40
0.6
 41
30.0
 62
     5
 63
     7
421
 16777215
 74
     1
 91
        4
 64
     7
 65
   257
 75
     1
175
     1
 42
1.0
 92
        9
 66
     7
 43
1.0
 76
     1
 77
     6
 78
     2
 67
     7
 79
     5
170
     0
171
     0
290
     0
174
     0
 93
        1
 44
0.0
173
     0
291
     1
 45
0.0
1001
ACAD
1000
AcDbSavedByObjectVersion
1070
     0
  0
VISUALSTYLE
  5
33
102
{ACAD_REACTORS
330
2A
102
}
102
{ACAD_XDICTIONARY
360
205
102
}
330
2A
100
AcDbVisualStyle
  2
Realistic
 70
     8
 71
     2
 72
     3
 73
     0
 90
        2
 40
0.6
 41
30.0
 62
     5
 63
     7
421
 16777215
 74
     0
 91
        0
 64
     7
 65
   257
 75
     1
175
     1
 42
1.0
 92
        8
 66
   257
 43
1.0
 76
     1
 77
     6
 78
     2
 67
     7
 79
     3
170
     0
171
     0
290
     0
174
     0
 93
       13
 44
0.0
173
     0
291
     0
 45
0.0
1001
ACAD
1000
AcDbSavedByObjectVersion
1070
     0
  0
VISUALSTYLE
  5
42
102
{ACAD_REACTORS
330
2A
102
}
102
{ACAD_XDICTIONARY
360
223
102
}
330
2A
100
AcDbVisualStyle
  2
Shaded
 70
    27
 71
     2
 72
     2
 73
     1
 90
        2
 40
0.6
 41
30.0
 62
     5
 63
     7
421
 16777215
 74
     0
 91
        4
 64
     7
 65
   257
 75
     1
175
     1
 42
1.0
 92
        8
 66
   257
 43
1.0
 76
     1
 77
     6
 78
     2
 67
     8
425
  7895160
 79
     3
170
     0
171
     0
290
     0
174
     0
 93
        5
 44
0.0
173
     0
291
     0
 45
0.0
1001
ACAD
1000
AcDbSavedByObjectVersion
1070
     0
  0
VISUALSTYLE
  5
41
102
{ACAD_REACTORS
330
2A
102
}
102
{ACAD_XDICTIONARY
360
221
102
}
330
2A
100
AcDbVisualStyle
  2
Shaded with edges
 70
    26
 71
     2
 72
     2
 73
     1
 90
        2
 40
0.6
 41
30.0
 62
     5
 63
     7
421
 16777215
 74
     1
 91
       10
 64
     7
 65
   257
 75
     2
175
     1
 42
1.0
 92
        8
 66
   257
 43
1.0
 76
     1
 77
     6
 78
     2
 67
     7
 79
     3
170
     0
171
     0
290
     0
174
     0
 93
        5
 44
0.0
173
     0
291
     0
 45
0.0
1001
ACAD
1000
AcDbSavedByObjectVersion
1070
     0
  0
VISUALSTYLE
  5
3E
102
{ACAD_REACTORS
330
2A
102
}
102
{ACAD_XDICTIONARY
360
21B
102
}
330
2A
100
AcDbVisualStyle
  2
Shades of Gray
 70
    23
 71
     2
 72
     2
 73
     3
 90
        0
 40
0.6
 41
30.0
 62
     5
 63
     7
421
 16777215
 74
     2
 91
        2
 64
     7
 65
     7
 75
     1
175
     1
 42
40.0
 92
        8
 66
     7
 43
1.0
 76
     1
 77
     6
 78
     2
 67
     7
 79
     3
170
     0
171
     0
290
     0
174
     0
 93
        1
 44
0.0
173
     0
291
     0
 45
0.0
1001
ACAD
1000
AcDbSavedByObjectVersion
1070
     0
  0
VISUALSTYLE
  5
3F
102
{ACAD_REACTORS
330
2A
102
}
102
{ACAD_XDICTIONARY
360
21D
102
}
330
2A
100
AcDbVisualStyle
  2
Sketchy
 70
    24
 71
     1
 72
     2
 73
     2
 90
        0
 40
0.6
 41
30.0
 62
     5
 63
     7
421
 16777215
 74
     2
 91
        2
 64
     7
 65
     7
 75
     1
175
     1
 42
40.0
 92
       11
 66
     7
 43
1.0
 76
     1
 77
     6
 78
     2
 67
     7
 79
     6
170
     0
171
     0
290
     0
174
     0
 93
        1
 44
0.0
173
     0
291
     0
 45
0.0
1001
ACAD
1000
AcDbSavedByObjectVersion
1070
     0
  0
VISUALSTYLE
  5
37
102
{ACAD_REACTORS
330
2A
102
}
102
{ACAD_XDICTIONARY
360
20D
102
}
330
2A
100
AcDbVisualStyle
  2
Thicken
 70
    13
 71
     2
 72
     2
 73
     0
 90
        0
 40
0.6
 41
30.0
 62
     5
 63
     7
421
 16777215
 74
     1
 91
        4
 64
     7
 65
   257
 75
     1
175
     1
 42
1.0
 92
       12
 66
     7
 43
1.0
 76
     1
 77
     6
 78
     2
 67
     7
 79
     5
170
     0
171
     0
290
     0
174
     0
 93
        1
 44
0.0
173
     0
291
     1
 45
0.0
1001
ACAD
1000
AcDbSavedByObjectVersion
1070
     0
  0
VISUALSTYLE
  5
30
102
{ACAD_REACTORS
330
2A
102
}
102
{ACAD_XDICTIONARY
360
1FF
102
}
330
2A
100
AcDbVisualStyle
  2
Wireframe
 70
     5
 71
     0
 72
     2
 73
     0
 90
        0
 40
0.6
 41
30.0
 62
     5
 63
     7
421
 16777215
 74
     1
 91
        4
 64
     7
 65
   257
 75
     1
175
     1
 42
1.0
 92
        0
 66
   257
 43
1.0
 76
     1
 77
     6
 78
     2
 67
     7
 79
     3
170
     0
171
     0
290
     0
174
     0
 93
        1
 44
0.0
173
     0
291
     0
 45
0.0
1001
ACAD
1000
AcDbSavedByObjectVersion
1070
     0
  0
VISUALSTYLE
  5
40
102
{ACAD_REACTORS
330
2A
102
}
102
{ACAD_XDICTIONARY
360
21F
102
}
330
2A
100
AcDbVisualStyle
  2
X-Ray
 70
    25
 71
     2
 72
     2
 73
     1
 90
        1
 40
0.5
 41
30.0
 62
     5
 63
     7
421
 16777215
 74
     1
 91
        0
 64
     7
 65
   257
 75
     1
175
     1
 42
1.0
 92
        8
 66
     7
 43
1.0
 76
     1
 77
     6
 78
     2
 67
     7
 79
     3
170
     0
171
     0
290
     0
174
     0
 93
       13
 44
0.0
173
     0
291
     0
 45
0.0
1001
ACAD
1000
AcDbSavedByObjectVersion
1070
     0
  0
DICTIONARYVAR
  5
1F2
102
{ACAD_REACTORS
330
1F1
102
}
330
1F1
100
DictionaryVariables
280
     0
  1
1:1
  0
DICTIONARYVAR
  5
233
102
{ACAD_REACTORS
330
1F1
102
}
330
1F1
100
DictionaryVariables
280
     0
  1
Standard
  0
DICTIONARYVAR
  5
232
102
{ACAD_REACTORS
330
1F1
102
}
330
1F1
100
DictionaryVariables
280
     0
  1
Standard
  0
DICTIONARYVAR
  5
1F3
102
{ACAD_REACTORS
330
1F1
102
}
330
1F1
100
DictionaryVariables
280
     0
  1
1
  0
DICTIONARYVAR
  5
1F4
102
{ACAD_REACTORS
330
1F1
102
}
330
1F1
100
DictionaryVariables
280
     0
  1
2
  0
DICTIONARY
  5
227
330
45
100
AcDbDictionary
280
     1
281
     1
  3
ACAD_XREC_ROUNDTRIP
360
228
  0
DICTIONARY
  5
225
330
44
100
AcDbDictionary
280
     1
281
     1
  3
ACAD_XREC_ROUNDTRIP
360
226
  0
DICTIONARY
  5
229
330
46
100
AcDbDictionary
280
     1
281
     1
  3
ACAD_XREC_ROUNDTRIP
360
22A
  0
DICTIONARY
  5
22F
330
5C
100
AcDbDictionary
280
     1
281
     1
  3
ACAD_XREC_ROUNDTRIP
360
230
  0
DICTIONARY
  5
22B
330
5A
100
AcDbDictionary
280
     1
281
     1
  3
ACAD_ROUNDTRIP_2008_TABLESTYLE_CELLSTYLEMAP
360
22D
  3
ACAD_XREC_ROUNDTRIP
360
22C
  0
DICTIONARY
  5
1FD
330
2F
100
AcDbDictionary
280
     1
281
     1
  3
ACAD_XREC_ROUNDTRIP
360
1FE
  0
DICTIONARY
  5
203
330
32
100
AcDbDictionary
280
     1
281
     1
  3
ACAD_XREC_ROUNDTRIP
360
204
  0
DICTIONARY
  5
20B
330
36
100
AcDbDictionary
280
     1
281
     1
  3
ACAD_XREC_ROUNDTRIP
360
20C
  0
DICTIONARY
  5
213
330
3A
100
AcDbDictionary
280
     1
281
     1
  3
ACAD_XREC_ROUNDTRIP
360
214
  0
DICTIONARY
  5
207
330
34
100
AcDbDictionary
280
     1
281
     1
  3
ACAD_XREC_ROUNDTRIP
360
208
  0
DICTIONARY
  5
209
330
35
100
AcDbDictionary
280
     1
281
     1
  3
ACAD_XREC_ROUNDTRIP
360
20A
  0
DICTIONARY
  5
219
330
3D
100
AcDbDictionary
280
     1
281
     1
  3
ACAD_XREC_ROUNDTRIP
360
21A
  0
DICTIONARY
  5
211
330
39
100
AcDbDictionary
280
     1
281
     1
  3
ACAD_XREC_ROUNDTRIP
360
212
  0
DICTIONARY
  5
1F5
330
2B
100
AcDbDictionary
280
     1
281
     1
  3
ACAD_XREC_ROUNDTRIP
360
1F6
  0
DICTIONARY
  5
1F7
330
2C
100
AcDbDictionary
280
     1
281
     1
  3
ACAD_XREC_ROUNDTRIP
360
1F8
  0
DICTIONARY
  5
1F9
330
2D
100
AcDbDictionary
280
     1
281
     1
  3
ACAD_XREC_ROUNDTRIP
360
1FA
  0
DICTIONARY
  5
1FB
330
2E
100
AcDbDictionary
280
     1
281
     1
  3
ACAD_XREC_ROUNDTRIP
360
1FC
  0
DICTIONARY
  5
201
330
31
100
AcDbDictionary
280
     1
281
     1
  3
ACAD_XREC_ROUNDTRIP
360
202
  0
DICTIONARY
  5
215
330
3B
100
AcDbDictionary
280
     1
281
     1
  3
ACAD_XREC_ROUNDTRIP
360
216
  0
DICTIONARY
  5
20F
330
38
100
AcDbDictionary
280
     1
281
     1
  3
ACAD_XREC_ROUNDTRIP
360
210
  0
DICTIONARY
  5
217
330
3C
100
AcDbDictionary
280
     1
281
     1
  3
ACAD_XREC_ROUNDTRIP
360
218
  0
DICTIONARY
  5
205
330
33
100
AcDbDictionary
280
     1
281
     1
  3
ACAD_XREC_ROUNDTRIP
360
206
  0
DICTIONARY
  5
223
330
42
100
AcDbDictionary
280
     1
281
     1
  3
ACAD_XREC_ROUNDTRIP
360
224
  0
DICTIONARY
  5
221
330
41
100
AcDbDictionary
280
     1
281
     1
  3
ACAD_XREC_ROUNDTRIP
360
222
  0
DICTIONARY
  5
21B
330
3E
100
AcDbDictionary
280
     1
281
     1
  3
ACAD_XREC_ROUNDTRIP
360
21C
  0
DICTIONARY
  5
21D
330
3F
100
AcDbDictionary
280
     1
281
     1
  3
ACAD_XREC_ROUNDTRIP
360
21E
  0
DICTIONARY
  5
20D
330
37
100
AcDbDictionary
280
     1
281
     1
  3
ACAD_XREC_ROUNDTRIP
360
20E
  0
DICTIONARY
  5
1FF
330
30
100
AcDbDictionary
280
     1
281
     1
  3
ACAD_XREC_ROUNDTRIP
360
200
  0
DICTIONARY
  5
21F
330
40
100
AcDbDictionary
280
     1
281
     1
  3
ACAD_XREC_ROUNDTRIP
360
220
  0
XRECORD
  5
228
102
{ACAD_REACTORS
330
227
102
}
330
227
100
AcDbXrecord
280
     1
102
MATERIAL
148
0.0
149
0.0
149
0.0
 93
        0
 94
      127
282
     0
 72
     1
 77
     1
171
     1
175
     1
179
     1
273
     0
  0
XRECORD
  5
226
102
{ACAD_REACTORS
330
225
102
}
330
225
100
AcDbXrecord
280
     1
102
MATERIAL
148
0.0
149
0.0
149
0.0
 93
        0
 94
      127
282
     0
 72
     1
 77
     1
171
     1
175
     1
179
     1
273
     0
  0
XRECORD
  5
22A
102
{ACAD_REACTORS
330
229
102
}
330
229
100
AcDbXrecord
280
     1
102
MATERIAL
148
0.0
149
0.0
149
0.0
 93
        0
 94
      127
282
     0
 72
     1
 77
     1
171
     1
175
     1
179
     1
273
     0
  0
XRECORD
  5
230
102
{ACAD_REACTORS
330
22F
102
}
330
22F
100
AcDbXrecord
280
     1
102
ACAD_ROUNDTRIP_2010_MLEADER_STYLE
  0
CELLSTYLEMAP
  5
22D
102
{ACAD_REACTORS
330
22B
102
}
330
22B
100
AcDbCellStyleMap
 90
        3
300
CELLSTYLE
  1
TABLEFORMAT_BEGIN
 90
        5
170
     1
 91
        0
 92
    32768
 62
   257
 93
        1
300
CONTENTFORMAT
  1
CONTENTFORMAT_BEGIN
 90
        0
 91
        0
 92
        4
 93
        0
300

 40
0.0
140
1.0
 94
        5
 62
     0
340
11
144
0.25
309
CONTENTFORMAT_END
171
     1
301
MARGIN
  1
CELLMARGIN_BEGIN
 40
0.06
 40
0.06
 40
0.06
 40
0.06
 40
0.06
 40
0.06
309
CELLMARGIN_END
 94
        6
 95
        1
302
GRIDFORMAT
  1
GRIDFORMAT_BEGIN
 90
        0
 91
        1
 62
     0
 92
       -2
340
14
 93
        0
 40
0.045
309
GRIDFORMAT_END
 95
        2
302
GRIDFORMAT
  1
GRIDFORMAT_BEGIN
 90
        0
 91
        1
 62
     0
 92
       -2
340
14
 93
        0
 40
0.045
309
GRIDFORMAT_END
 95
        4
302
GRIDFORMAT
  1
GRIDFORMAT_BEGIN
 90
        0
 91
        1
 62
     0
 92
       -2
340
14
 93
        0
 40
0.045
309
GRIDFORMAT_END
 95
        8
302
GRIDFORMAT
  1
GRIDFORMAT_BEGIN
 90
        0
 91
        1
 62
     0
 92
       -2
340
14
 93
        0
 40
0.045
309
GRIDFORMAT_END
 95
       16
302
GRIDFORMAT
  1
GRIDFORMAT_BEGIN
 90
        0
 91
        1
 62
     0
 92
       -2
340
14
 93
        0
 40
0.045
309
GRIDFORMAT_END
 95
       32
302
GRIDFORMAT
  1
GRIDFORMAT_BEGIN
 90
        0
 91
        1
 62
     0
 92
       -2
340
14
 93
        0
 40
0.045
309
GRIDFORMAT_END
309
TABLEFORMAT_END
  1
CELLSTYLE_BEGIN
 90
        1
 91
        1
300
_TITLE
309
CELLSTYLE_END
300
CELLSTYLE
  1
TABLEFORMAT_BEGIN
 90
        5
170
     1
 91
        0
 92
        0
 62
   257
 93
        1
300
CONTENTFORMAT
  1
CONTENTFORMAT_BEGIN
 90
        0
 91
        0
 92
        4
 93
        0
300

 40
0.0
140
1.0
 94
        5
 62
     0
340
11
144
0.18
309
CONTENTFORMAT_END
171
     1
301
MARGIN
  1
CELLMARGIN_BEGIN
 40
0.06
 40
0.06
 40
0.06
 40
0.06
 40
0.06
 40
0.06
309
CELLMARGIN_END
 94
        6
 95
        1
302
GRIDFORMAT
  1
GRIDFORMAT_BEGIN
 90
        0
 91
        1
 62
     0
 92
       -2
340
14
 93
        0
 40
0.045
309
GRIDFORMAT_END
 95
        2
302
GRIDFORMAT
  1
GRIDFORMAT_BEGIN
 90
        0
 91
        1
 62
     0
 92
       -2
340
14
 93
        0
 40
0.045
309
GRIDFORMAT_END
 95
        4
302
GRIDFORMAT
  1
GRIDFORMAT_BEGIN
 90
        0
 91
        1
 62
     0
 92
       -2
340
14
 93
        0
 40
0.045
309
GRIDFORMAT_END
 95
        8
302
GRIDFORMAT
  1
GRIDFORMAT_BEGIN
 90
        0
 91
        1
 62
     0
 92
       -2
340
14
 93
        0
 40
0.045
309
GRIDFORMAT_END
 95
       16
302
GRIDFORMAT
  1
GRIDFORMAT_BEGIN
 90
        0
 91
        1
 62
     0
 92
       -2
340
14
 93
        0
 40
0.045
309
GRIDFORMAT_END
 95
       32
302
GRIDFORMAT
  1
GRIDFORMAT_BEGIN
 90
        0
 91
        1
 62
     0
 92
       -2
340
14
 93
        0
 40
0.045
309
GRIDFORMAT_END
309
TABLEFORMAT_END
  1
CELLSTYLE_BEGIN
 90
        2
 91
        1
300
_HEADER
309
CELLSTYLE_END
300
CELLSTYLE
  1
TABLEFORMAT_BEGIN
 90
        5
170
     1
 91
        0
 92
        0
 62
   257
 93
        1
300
CONTENTFORMAT
  1
CONTENTFORMAT_BEGIN
 90
        0
 91
        0
 92
        4
 93
        0
300

 40
0.0
140
1.0
 94
        2
 62
     0
340
11
144
0.18
309
CONTENTFORMAT_END
171
     1
301
MARGIN
  1
CELLMARGIN_BEGIN
 40
0.06
 40
0.06
 40
0.06
 40
0.06
 40
0.06
 40
0.06
309
CELLMARGIN_END
 94
        6
 95
        1
302
GRIDFORMAT
  1
GRIDFORMAT_BEGIN
 90
        0
 91
        1
 62
     0
 92
       -2
340
14
 93
        0
 40
0.045
309
GRIDFORMAT_END
 95
        2
302
GRIDFORMAT
  1
GRIDFORMAT_BEGIN
 90
        0
 91
        1
 62
     0
 92
       -2
340
14
 93
        0
 40
0.045
309
GRIDFORMAT_END
 95
        4
302
GRIDFORMAT
  1
GRIDFORMAT_BEGIN
 90
        0
 91
        1
 62
     0
 92
       -2
340
14
 93
        0
 40
0.045
309
GRIDFORMAT_END
 95
        8
302
GRIDFORMAT
  1
GRIDFORMAT_BEGIN
 90
        0
 91
        1
 62
     0
 92
       -2
340
14
 93
        0
 40
0.045
309
GRIDFORMAT_END
 95
       16
302
GRIDFORMAT
  1
GRIDFORMAT_BEGIN
 90
        0
 91
        1
 62
     0
 92
       -2
340
14
 93
        0
 40
0.045
309
GRIDFORMAT_END
 95
       32
302
GRIDFORMAT
  1
GRIDFORMAT_BEGIN
 90
        0
 91
        1
 62
     0
 92
       -2
340
14
 93
        0
 40
0.045
309
GRIDFORMAT_END
309
TABLEFORMAT_END
  1
CELLSTYLE_BEGIN
 90
        3
 91
        2
300
_DATA
309
CELLSTYLE_END
  0
XRECORD
  5
22C
102
{ACAD_REACTORS
330
22B
102
}
330
22B
100
AcDbXrecord
280
     1
102
ACAD_ROUNDTRIP_PRE2007_TABLESTYLE
 90
        4
 91
        0
  1

 92
        4
 93
        0
  2

 94
        4
 95
        0
  3

  0
XRECORD
  5
1FE
102
{ACAD_REACTORS
330
1FD
102
}
330
1FD
100
AcDbXrecord
280
     1
102
RTVSPropertyOp0
 70
     1
102
RTVSPropertyOp1
 70
     1
102
RTVSPropertyOp2
 70
     1
102
RTVSPropertyOp3
 70
     1
102
RTVSPropertyOp4
 70
     1
102
RTVSPropertyOp5
 70
     1
102
RTVSPropertyOp6
 70
     1
102
RTVSPropertyOp7
 70
     1
102
RTVSPropertyOp8
 70
     1
102
RTVSPropertyOp9
 70
     1
102
RTVSPropertyOp10
 70
     1
102
RTVSPropertyOp11
 70
     1
102
RTVSPropertyOp12
 70
     1
102
RTVSPropertyOp13
 70
     1
102
RTVSPropertyOp14
 70
     1
102
RTVSPropertyOp15
 70
     1
102
RTVSPropertyOp16
 70
     1
102
RTVSPropertyOp17
 70
     1
102
RTVSPropertyOp18
 70
     1
102
RTVSPropertyOp19
 70
     1
102
RTVSPropertyOp20
 70
     1
102
RTVSPropertyOp21
 70
     1
102
RTVSPropertyOp22
 70
     1
102
RTVSPropertyOp23
 70
     1
102
RTVSPropertyOp24
 70
     1
102
RTVSPropertyOp25
 70
     1
102
RTVSPropertyOp26
 70
     1
102
RTVSPropertyOp27
 70
     1
102
RTVSPropertyOp28
 70
     1
102
RTVSPropertyOp29
 70
     1
102
RTVSPropertyOp30
 70
     1
102
RTVSPropertyOp31
 70
     1
102
RTVSPropertyOp32
 70
     1
102
RTVSPropertyOp33
 70
     1
102
RTVSPropertyOp34
 70
     1
102
RTVSPropertyOp35
 70
     1
102
RTVSPropertyOp36
 70
     1
102
RTVSPropertyOp37
 70
     1
102
RTVSPropertyOp38
 70
     1
102
RTVSPropertyOp39
 70
     1
102
RTVSPropertyOp40
 70
     1
102
RTVSPropertyOp41
 70
     1
102
RTVSPropertyOp42
 70
     1
102
RTVSPropertyOp43
 70
     1
102
RTVSPropertyOp44
 70
     1
102
RTVSPropertyOp45
 70
     1
102
RTVSPropertyOp46
 70
     1
102
RTVSPropertyOp47
 70
     1
102
RTVSPropertyOp48
 70
     1
102
RTVSPropertyOp49
 70
     1
102
RTVSPropertyOp50
 70
     1
102
RTVSPropertyOp51
 70
     0
102
RTVSPropertyOp52
 70
     0
102
RTVSPropertyOp53
 70
     1
102
RTVSPropertyOp54
 70
     1
102
RTVSPropertyOp55
 70
     1
102
RTVSPropertyOp56
 70
     1
102
RTVSPropertyOp57
 70
     1
102
RTVSPost2010Prop28
280
     1
102
RTVSPost2010PropOp28
 70
     1
102
RTVSPost2010Prop29
280
     1
102
RTVSPost2010PropOp29
 70
     1
102
RTVSPost2010Prop30
280
     0
102
RTVSPost2010PropOp30
 70
     1
102
RTVSPost2010Prop31
280
     0
102
RTVSPost2010PropOp31
 70
     1
102
RTVSPost2010Prop32
280
     0
102
RTVSPost2010PropOp32
 70
     1
102
RTVSPost2010Prop33
280
     0
102
RTVSPost2010PropOp33
 70
     1
102
RTVSPost2010Prop34
280
     0
102
RTVSPost2010PropOp34
 70
     1
102
RTVSPost2010Prop35
280
     0
102
RTVSPost2010PropOp35
 70
     1
102
RTVSPost2010Prop36
280
     0
102
RTVSPost2010PropOp36
 70
     1
102
RTVSPost2010Prop37
 90
       50
102
RTVSPost2010PropOp37
 70
     1
102
RTVSPost2010Prop38
140
0.0
102
RTVSPost2010PropOp38
 70
     1
102
RTVSPost2010Prop39
140
1.0
102
RTVSPost2010PropOp39
 70
     1
102
RTVSPost2010Prop40
 90
        0
102
RTVSPost2010PropOp40
 70
     1
102
RTVSPost2010Prop41ColorIndex
 90
       18
102
RTVSPost2010Prop41ColorRGB
 90
        0
102
RTVSPost2010PropOp41
 70
     1
102
RTVSPost2010Prop42
 90
       50
102
RTVSPost2010PropOp42
 70
     1
102
RTVSPost2010Prop43
 90
        3
102
RTVSPost2010PropOp43
 70
     1
102
RTVSPost2010Prop44ColorIndex
 90
        5
102
RTVSPost2010Prop44ColorRGB
 90
      255
102
RTVSPost2010PropOp44
 70
     1
102
RTVSPost2010Prop45
280
     0
102
RTVSPost2010PropOp45
 70
     1
102
RTVSPost2010Prop46
 90
       50
102
RTVSPost2010PropOp46
 70
     1
102
RTVSPost2010Prop47
 90
       50
102
RTVSPost2010PropOp47
 70
     1
102
RTVSPost2010Prop48
 90
       50
102
RTVSPost2010PropOp48
 70
     1
102
RTVSPost2010Prop49
280
     0
102
RTVSPost2010PropOp49
 70
     1
102
RTVSPost2010Prop50
 90
       50
102
RTVSPost2010PropOp50
 70
     1
102
RTVSPost2010Prop51ColorIndex
 90
      256
102
RTVSPost2010Prop51ColorRGB
 90
-16777216
102
RTVSPost2010PropOp51
 70
     0
102
RTVSPost2010Prop52
140
1.0
102
RTVSPost2010PropOp52
 70
     0
102
RTVSPost2010Prop53
 90
        2
102
RTVSPost2010PropOp53
 70
     1
102
RTVSPost2010Prop54
  1
strokes_ogs.tif
102
RTVSPost2010PropOp54
 70
     1
102
RTVSPost2010Prop55
280
     0
102
RTVSPost2010PropOp55
 70
     1
102
RTVSPost2010Prop56
140
1.0
102
RTVSPost2010PropOp56
 70
     1
102
RTVSPost2010Prop57
140
1.0
102
RTVSPost2010PropOp57
 70
     1
  0
XRECORD
  5
204
102
{ACAD_REACTORS
330
203
102
}
330
203
100
AcDbXrecord
280
     1
102
RTVSPropertyOp0
 70
     1
102
RTVSPropertyOp1
 70
     1
102
RTVSPropertyOp2
 70
     1
102
RTVSPropertyOp3
 70
     1
102
RTVSPropertyOp4
 70
     1
102
RTVSPropertyOp5
 70
     1
102
RTVSPropertyOp6
 70
     1
102
RTVSPropertyOp7
 70
     1
102
RTVSPropertyOp8
 70
     1
102
RTVSPropertyOp9
 70
     1
102
RTVSPropertyOp10
 70
     1
102
RTVSPropertyOp11
 70
     1
102
RTVSPropertyOp12
 70
     1
102
RTVSPropertyOp13
 70
     1
102
RTVSPropertyOp14
 70
     1
102
RTVSPropertyOp15
 70
     1
102
RTVSPropertyOp16
 70
     1
102
RTVSPropertyOp17
 70
     1
102
RTVSPropertyOp18
 70
     1
102
RTVSPropertyOp19
 70
     1
102
RTVSPropertyOp20
 70
     1
102
RTVSPropertyOp21
 70
     1
102
RTVSPropertyOp22
 70
     1
102
RTVSPropertyOp23
 70
     1
102
RTVSPropertyOp24
 70
     1
102
RTVSPropertyOp25
 70
     1
102
RTVSPropertyOp26
 70
     1
102
RTVSPropertyOp27
 70
     1
102
RTVSPropertyOp28
 70
     1
102
RTVSPropertyOp29
 70
     1
102
RTVSPropertyOp30
 70
     1
102
RTVSPropertyOp31
 70
     1
102
RTVSPropertyOp32
 70
     1
102
RTVSPropertyOp33
 70
     1
102
RTVSPropertyOp34
 70
     1
102
RTVSPropertyOp35
 70
     1
102
RTVSPropertyOp36
 70
     1
102
RTVSPropertyOp37
 70
     1
102
RTVSPropertyOp38
 70
     1
102
RTVSPropertyOp39
 70
     1
102
RTVSPropertyOp40
 70
     1
102
RTVSPropertyOp41
 70
     1
102
RTVSPropertyOp42
 70
     1
102
RTVSPropertyOp43
 70
     1
102
RTVSPropertyOp44
 70
     1
102
RTVSPropertyOp45
 70
     1
102
RTVSPropertyOp46
 70
     1
102
RTVSPropertyOp47
 70
     1
102
RTVSPropertyOp48
 70
     1
102
RTVSPropertyOp49
 70
     1
102
RTVSPropertyOp50
 70
     1
102
RTVSPropertyOp51
 70
     0
102
RTVSPropertyOp52
 70
     0
102
RTVSPropertyOp53
 70
     1
102
RTVSPropertyOp54
 70
     1
102
RTVSPropertyOp55
 70
     1
102
RTVSPropertyOp56
 70
     1
102
RTVSPropertyOp57
 70
     1
102
RTVSPost2010Prop28
280
     0
102
RTVSPost2010PropOp28
 70
     1
102
RTVSPost2010Prop29
280
     1
102
RTVSPost2010PropOp29
 70
     1
102
RTVSPost2010Prop30
280
     1
102
RTVSPost2010PropOp30
 70
     1
102
RTVSPost2010Prop31
280
     0
102
RTVSPost2010PropOp31
 70
     1
102
RTVSPost2010Prop32
280
     0
102
RTVSPost2010PropOp32
 70
     1
102
RTVSPost2010Prop33
280
     0
102
RTVSPost2010PropOp33
 70
     1
102
RTVSPost2010Prop34
280
     0
102
RTVSPost2010PropOp34
 70
     1
102
RTVSPost2010Prop35
280
     0
102
RTVSPost2010PropOp35
 70
     1
102
RTVSPost2010Prop36
280
     0
102
RTVSPost2010PropOp36
 70
     1
102
RTVSPost2010Prop37
 90
       50
102
RTVSPost2010PropOp37
 70
     1
102
RTVSPost2010Prop38
140
0.0
102
RTVSPost2010PropOp38
 70
     1
102
RTVSPost2010Prop39
140
1.0
102
RTVSPost2010PropOp39
 70
     1
102
RTVSPost2010Prop40
 90
        0
102
RTVSPost2010PropOp40
 70
     1
102
RTVSPost2010Prop41ColorIndex
 90
       18
102
RTVSPost2010Prop41ColorRGB
 90
        0
102
RTVSPost2010PropOp41
 70
     1
102
RTVSPost2010Prop42
 90
       50
102
RTVSPost2010PropOp42
 70
     1
102
RTVSPost2010Prop43
 90
        3
102
RTVSPost2010PropOp43
 70
     1
102
RTVSPost2010Prop44ColorIndex
 90
        5
102
RTVSPost2010Prop44ColorRGB
 90
      255
102
RTVSPost2010PropOp44
 70
     1
102
RTVSPost2010Prop45
280
     0
102
RTVSPost2010PropOp45
 70
     1
102
RTVSPost2010Prop46
 90
       50
102
RTVSPost2010PropOp46
 70
     1
102
RTVSPost2010Prop47
 90
       50
102
RTVSPost2010PropOp47
 70
     1
102
RTVSPost2010Prop48
 90
       50
102
RTVSPost2010PropOp48
 70
     1
102
RTVSPost2010Prop49
280
     0
102
RTVSPost2010PropOp49
 70
     1
102
RTVSPost2010Prop50
 90
       50
102
RTVSPost2010PropOp50
 70
     1
102
RTVSPost2010Prop51ColorIndex
 90
      256
102
RTVSPost2010Prop51ColorRGB
 90
-16777216
102
RTVSPost2010PropOp51
 70
     0
102
RTVSPost2010Prop52
140
1.0
102
RTVSPost2010PropOp52
 70
     0
102
RTVSPost2010Prop53
 90
        2
102
RTVSPost2010PropOp53
 70
     1
102
RTVSPost2010Prop54
  1
strokes_ogs.tif
102
RTVSPost2010PropOp54
 70
     1
102
RTVSPost2010Prop55
280
     0
102
RTVSPost2010PropOp55
 70
     1
102
RTVSPost2010Prop56
140
1.0
102
RTVSPost2010PropOp56
 70
     1
102
RTVSPost2010Prop57
140
1.0
102
RTVSPost2010PropOp57
 70
     1
  0
XRECORD
  5
20C
102
{ACAD_REACTORS
330
20B
102
}
330
20B
100
AcDbXrecord
280
     1
102
RTVSPropertyOp0
 70
     1
102
RTVSPropertyOp1
 70
     1
102
RTVSPropertyOp2
 70
     1
102
RTVSPropertyOp3
 70
     1
102
RTVSPropertyOp4
 70
     1
102
RTVSPropertyOp5
 70
     1
102
RTVSPropertyOp6
 70
     1
102
RTVSPropertyOp7
 70
     1
102
RTVSPropertyOp8
 70
     1
102
RTVSPropertyOp9
 70
     1
102
RTVSPropertyOp10
 70
     1
102
RTVSPropertyOp11
 70
     1
102
RTVSPropertyOp12
 70
     1
102
RTVSPropertyOp13
 70
     1
102
RTVSPropertyOp14
 70
     1
102
RTVSPropertyOp15
 70
     1
102
RTVSPropertyOp16
 70
     1
102
RTVSPropertyOp17
 70
     1
102
RTVSPropertyOp18
 70
     1
102
RTVSPropertyOp19
 70
     1
102
RTVSPropertyOp20
 70
     1
102
RTVSPropertyOp21
 70
     1
102
RTVSPropertyOp22
 70
     1
102
RTVSPropertyOp23
 70
     1
102
RTVSPropertyOp24
 70
     1
102
RTVSPropertyOp25
 70
     1
102
RTVSPropertyOp26
 70
     1
102
RTVSPropertyOp27
 70
     1
102
RTVSPropertyOp28
 70
     1
102
RTVSPropertyOp29
 70
     1
102
RTVSPropertyOp30
 70
     1
102
RTVSPropertyOp31
 70
     1
102
RTVSPropertyOp32
 70
     1
102
RTVSPropertyOp33
 70
     1
102
RTVSPropertyOp34
 70
     1
102
RTVSPropertyOp35
 70
     1
102
RTVSPropertyOp36
 70
     1
102
RTVSPropertyOp37
 70
     1
102
RTVSPropertyOp38
 70
     1
102
RTVSPropertyOp39
 70
     1
102
RTVSPropertyOp40
 70
     1
102
RTVSPropertyOp41
 70
     1
102
RTVSPropertyOp42
 70
     1
102
RTVSPropertyOp43
 70
     1
102
RTVSPropertyOp44
 70
     1
102
RTVSPropertyOp45
 70
     1
102
RTVSPropertyOp46
 70
     1
102
RTVSPropertyOp47
 70
     1
102
RTVSPropertyOp48
 70
     1
102
RTVSPropertyOp49
 70
     1
102
RTVSPropertyOp50
 70
     1
102
RTVSPropertyOp51
 70
     0
102
RTVSPropertyOp52
 70
     0
102
RTVSPropertyOp53
 70
     1
102
RTVSPropertyOp54
 70
     1
102
RTVSPropertyOp55
 70
     1
102
RTVSPropertyOp56
 70
     1
102
RTVSPropertyOp57
 70
     1
102
RTVSPost2010Prop28
280
     0
102
RTVSPost2010PropOp28
 70
     1
102
RTVSPost2010Prop29
280
     1
102
RTVSPost2010PropOp29
 70
     1
102
RTVSPost2010Prop30
280
     1
102
RTVSPost2010PropOp30
 70
     1
102
RTVSPost2010Prop31
280
     0
102
RTVSPost2010PropOp31
 70
     1
102
RTVSPost2010Prop32
280
     0
102
RTVSPost2010PropOp32
 70
     1
102
RTVSPost2010Prop33
280
     0
102
RTVSPost2010PropOp33
 70
     1
102
RTVSPost2010Prop34
280
     0
102
RTVSPost2010PropOp34
 70
     1
102
RTVSPost2010Prop35
280
     0
102
RTVSPost2010PropOp35
 70
     1
102
RTVSPost2010Prop36
280
     0
102
RTVSPost2010PropOp36
 70
     1
102
RTVSPost2010Prop37
 90
       50
102
RTVSPost2010PropOp37
 70
     1
102
RTVSPost2010Prop38
140
0.0
102
RTVSPost2010PropOp38
 70
     1
102
RTVSPost2010Prop39
140
1.0
102
RTVSPost2010PropOp39
 70
     1
102
RTVSPost2010Prop40
 90
        0
102
RTVSPost2010PropOp40
 70
     1
102
RTVSPost2010Prop41ColorIndex
 90
       18
102
RTVSPost2010Prop41ColorRGB
 90
        0
102
RTVSPost2010PropOp41
 70
     1
102
RTVSPost2010Prop42
 90
       50
102
RTVSPost2010PropOp42
 70
     1
102
RTVSPost2010Prop43
 90
        3
102
RTVSPost2010PropOp43
 70
     1
102
RTVSPost2010Prop44ColorIndex
 90
        5
102
RTVSPost2010Prop44ColorRGB
 90
      255
102
RTVSPost2010PropOp44
 70
     1
102
RTVSPost2010Prop45
280
     0
102
RTVSPost2010PropOp45
 70
     1
102
RTVSPost2010Prop46
 90
       50
102
RTVSPost2010PropOp46
 70
     1
102
RTVSPost2010Prop47
 90
       50
102
RTVSPost2010PropOp47
 70
     1
102
RTVSPost2010Prop48
 90
       50
102
RTVSPost2010PropOp48
 70
     1
102
RTVSPost2010Prop49
280
     0
102
RTVSPost2010PropOp49
 70
     1
102
RTVSPost2010Prop50
 90
       50
102
RTVSPost2010PropOp50
 70
     1
102
RTVSPost2010Prop51ColorIndex
 90
      256
102
RTVSPost2010Prop51ColorRGB
 90
-16777216
102
RTVSPost2010PropOp51
 70
     0
102
RTVSPost2010Prop52
140
1.0
102
RTVSPost2010PropOp52
 70
     0
102
RTVSPost2010Prop53
 90
        2
102
RTVSPost2010PropOp53
 70
     1
102
RTVSPost2010Prop54
  1
strokes_ogs.tif
102
RTVSPost2010PropOp54
 70
     1
102
RTVSPost2010Prop55
280
     0
102
RTVSPost2010PropOp55
 70
     1
102
RTVSPost2010Prop56
140
1.0
102
RTVSPost2010PropOp56
 70
     1
102
RTVSPost2010Prop57
140
1.0
102
RTVSPost2010PropOp57
 70
     1
  0
XRECORD
  5
214
102
{ACAD_REACTORS
330
213
102
}
330
213
100
AcDbXrecord
280
     1
102
RTVSPropertyOp0
 70
     1
102
RTVSPropertyOp1
 70
     1
102
RTVSPropertyOp2
 70
     1
102
RTVSPropertyOp3
 70
     1
102
RTVSPropertyOp4
 70
     1
102
RTVSPropertyOp5
 70
     1
102
RTVSPropertyOp6
 70
     1
102
RTVSPropertyOp7
 70
     1
102
RTVSPropertyOp8
 70
     1
102
RTVSPropertyOp9
 70
     1
102
RTVSPropertyOp10
 70
     1
102
RTVSPropertyOp11
 70
     1
102
RTVSPropertyOp12
 70
     1
102
RTVSPropertyOp13
 70
     1
102
RTVSPropertyOp14
 70
     1
102
RTVSPropertyOp15
 70
     1
102
RTVSPropertyOp16
 70
     1
102
RTVSPropertyOp17
 70
     1
102
RTVSPropertyOp18
 70
     1
102
RTVSPropertyOp19
 70
     1
102
RTVSPropertyOp20
 70
     1
102
RTVSPropertyOp21
 70
     1
102
RTVSPropertyOp22
 70
     1
102
RTVSPropertyOp23
 70
     1
102
RTVSPropertyOp24
 70
     1
102
RTVSPropertyOp25
 70
     1
102
RTVSPropertyOp26
 70
     1
102
RTVSPropertyOp27
 70
     1
102
RTVSPropertyOp28
 70
     1
102
RTVSPropertyOp29
 70
     1
102
RTVSPropertyOp30
 70
     1
102
RTVSPropertyOp31
 70
     1
102
RTVSPropertyOp32
 70
     1
102
RTVSPropertyOp33
 70
     1
102
RTVSPropertyOp34
 70
     1
102
RTVSPropertyOp35
 70
     1
102
RTVSPropertyOp36
 70
     1
102
RTVSPropertyOp37
 70
     1
102
RTVSPropertyOp38
 70
     1
102
RTVSPropertyOp39
 70
     1
102
RTVSPropertyOp40
 70
     1
102
RTVSPropertyOp41
 70
     1
102
RTVSPropertyOp42
 70
     1
102
RTVSPropertyOp43
 70
     1
102
RTVSPropertyOp44
 70
     1
102
RTVSPropertyOp45
 70
     1
102
RTVSPropertyOp46
 70
     1
102
RTVSPropertyOp47
 70
     1
102
RTVSPropertyOp48
 70
     1
102
RTVSPropertyOp49
 70
     1
102
RTVSPropertyOp50
 70
     1
102
RTVSPropertyOp51
 70
     0
102
RTVSPropertyOp52
 70
     0
102
RTVSPropertyOp53
 70
     1
102
RTVSPropertyOp54
 70
     1
102
RTVSPropertyOp55
 70
     1
102
RTVSPropertyOp56
 70
     1
102
RTVSPropertyOp57
 70
     1
102
RTVSPost2010Prop28
280
     0
102
RTVSPost2010PropOp28
 70
     1
102
RTVSPost2010Prop29
280
     1
102
RTVSPost2010PropOp29
 70
     1
102
RTVSPost2010Prop30
280
     1
102
RTVSPost2010PropOp30
 70
     1
102
RTVSPost2010Prop31
280
     0
102
RTVSPost2010PropOp31
 70
     1
102
RTVSPost2010Prop32
280
     0
102
RTVSPost2010PropOp32
 70
     1
102
RTVSPost2010Prop33
280
     0
102
RTVSPost2010PropOp33
 70
     1
102
RTVSPost2010Prop34
280
     0
102
RTVSPost2010PropOp34
 70
     1
102
RTVSPost2010Prop35
280
     0
102
RTVSPost2010PropOp35
 70
     1
102
RTVSPost2010Prop36
280
     0
102
RTVSPost2010PropOp36
 70
     1
102
RTVSPost2010Prop37
 90
       50
102
RTVSPost2010PropOp37
 70
     1
102
RTVSPost2010Prop38
140
0.0
102
RTVSPost2010PropOp38
 70
     1
102
RTVSPost2010Prop39
140
1.0
102
RTVSPost2010PropOp39
 70
     1
102
RTVSPost2010Prop40
 90
        0
102
RTVSPost2010PropOp40
 70
     1
102
RTVSPost2010Prop41ColorIndex
 90
       18
102
RTVSPost2010Prop41ColorRGB
 90
        0
102
RTVSPost2010PropOp41
 70
     1
102
RTVSPost2010Prop42
 90
       50
102
RTVSPost2010PropOp42
 70
     1
102
RTVSPost2010Prop43
 90
        3
102
RTVSPost2010PropOp43
 70
     1
102
RTVSPost2010Prop44ColorIndex
 90
        5
102
RTVSPost2010Prop44ColorRGB
 90
      255
102
RTVSPost2010PropOp44
 70
     1
102
RTVSPost2010Prop45
280
     0
102
RTVSPost2010PropOp45
 70
     1
102
RTVSPost2010Prop46
 90
       50
102
RTVSPost2010PropOp46
 70
     1
102
RTVSPost2010Prop47
 90
       50
102
RTVSPost2010PropOp47
 70
     1
102
RTVSPost2010Prop48
 90
       50
102
RTVSPost2010PropOp48
 70
     1
102
RTVSPost2010Prop49
280
     0
102
RTVSPost2010PropOp49
 70
     1
102
RTVSPost2010Prop50
 90
       50
102
RTVSPost2010PropOp50
 70
     1
102
RTVSPost2010Prop51ColorIndex
 90
      256
102
RTVSPost2010Prop51ColorRGB
 90
-16777216
102
RTVSPost2010PropOp51
 70
     0
102
RTVSPost2010Prop52
140
1.0
102
RTVSPost2010PropOp52
 70
     0
102
RTVSPost2010Prop53
 90
        2
102
RTVSPost2010PropOp53
 70
     1
102
RTVSPost2010Prop54
  1
strokes_ogs.tif
102
RTVSPost2010PropOp54
 70
     1
102
RTVSPost2010Prop55
280
     0
102
RTVSPost2010PropOp55
 70
     1
102
RTVSPost2010Prop56
140
1.0
102
RTVSPost2010PropOp56
 70
     1
102
RTVSPost2010Prop57
140
1.0
102
RTVSPost2010PropOp57
 70
     1
  0
XRECORD
  5
208
102
{ACAD_REACTORS
330
207
102
}
330
207
100
AcDbXrecord
280
     1
102
RTVSPropertyOp0
 70
     1
102
RTVSPropertyOp1
 70
     1
102
RTVSPropertyOp2
 70
     1
102
RTVSPropertyOp3
 70
     1
102
RTVSPropertyOp4
 70
     1
102
RTVSPropertyOp5
 70
     1
102
RTVSPropertyOp6
 70
     1
102
RTVSPropertyOp7
 70
     1
102
RTVSPropertyOp8
 70
     1
102
RTVSPropertyOp9
 70
     1
102
RTVSPropertyOp10
 70
     1
102
RTVSPropertyOp11
 70
     1
102
RTVSPropertyOp12
 70
     1
102
RTVSPropertyOp13
 70
     1
102
RTVSPropertyOp14
 70
     1
102
RTVSPropertyOp15
 70
     1
102
RTVSPropertyOp16
 70
     1
102
RTVSPropertyOp17
 70
     1
102
RTVSPropertyOp18
 70
     1
102
RTVSPropertyOp19
 70
     1
102
RTVSPropertyOp20
 70
     1
102
RTVSPropertyOp21
 70
     1
102
RTVSPropertyOp22
 70
     1
102
RTVSPropertyOp23
 70
     1
102
RTVSPropertyOp24
 70
     1
102
RTVSPropertyOp25
 70
     1
102
RTVSPropertyOp26
 70
     1
102
RTVSPropertyOp27
 70
     1
102
RTVSPropertyOp28
 70
     1
102
RTVSPropertyOp29
 70
     1
102
RTVSPropertyOp30
 70
     1
102
RTVSPropertyOp31
 70
     1
102
RTVSPropertyOp32
 70
     1
102
RTVSPropertyOp33
 70
     1
102
RTVSPropertyOp34
 70
     1
102
RTVSPropertyOp35
 70
     1
102
RTVSPropertyOp36
 70
     1
102
RTVSPropertyOp37
 70
     1
102
RTVSPropertyOp38
 70
     1
102
RTVSPropertyOp39
 70
     1
102
RTVSPropertyOp40
 70
     1
102
RTVSPropertyOp41
 70
     1
102
RTVSPropertyOp42
 70
     1
102
RTVSPropertyOp43
 70
     1
102
RTVSPropertyOp44
 70
     1
102
RTVSPropertyOp45
 70
     1
102
RTVSPropertyOp46
 70
     1
102
RTVSPropertyOp47
 70
     1
102
RTVSPropertyOp48
 70
     1
102
RTVSPropertyOp49
 70
     1
102
RTVSPropertyOp50
 70
     1
102
RTVSPropertyOp51
 70
     0
102
RTVSPropertyOp52
 70
     0
102
RTVSPropertyOp53
 70
     1
102
RTVSPropertyOp54
 70
     1
102
RTVSPropertyOp55
 70
     1
102
RTVSPropertyOp56
 70
     1
102
RTVSPropertyOp57
 70
     1
102
RTVSPost2010Prop28
280
     0
102
RTVSPost2010PropOp28
 70
     1
102
RTVSPost2010Prop29
280
     1
102
RTVSPost2010PropOp29
 70
     1
102
RTVSPost2010Prop30
280
     1
102
RTVSPost2010PropOp30
 70
     1
102
RTVSPost2010Prop31
280
     0
102
RTVSPost2010PropOp31
 70
     1
102
RTVSPost2010Prop32
280
     0
102
RTVSPost2010PropOp32
 70
     1
102
RTVSPost2010Prop33
280
     0
102
RTVSPost2010PropOp33
 70
     1
102
RTVSPost2010Prop34
280
     0
102
RTVSPost2010PropOp34
 70
     1
102
RTVSPost2010Prop35
280
     0
102
RTVSPost2010PropOp35
 70
     1
102
RTVSPost2010Prop36
280
     0
102
RTVSPost2010PropOp36
 70
     1
102
RTVSPost2010Prop37
 90
       50
102
RTVSPost2010PropOp37
 70
     1
102
RTVSPost2010Prop38
140
0.0
102
RTVSPost2010PropOp38
 70
     1
102
RTVSPost2010Prop39
140
1.0
102
RTVSPost2010PropOp39
 70
     1
102
RTVSPost2010Prop40
 90
        0
102
RTVSPost2010PropOp40
 70
     1
102
RTVSPost2010Prop41ColorIndex
 90
       18
102
RTVSPost2010Prop41ColorRGB
 90
        0
102
RTVSPost2010PropOp41
 70
     1
102
RTVSPost2010Prop42
 90
       50
102
RTVSPost2010PropOp42
 70
     1
102
RTVSPost2010Prop43
 90
        3
102
RTVSPost2010PropOp43
 70
     1
102
RTVSPost2010Prop44ColorIndex
 90
        5
102
RTVSPost2010Prop44ColorRGB
 90
      255
102
RTVSPost2010PropOp44
 70
     1
102
RTVSPost2010Prop45
280
     0
102
RTVSPost2010PropOp45
 70
     1
102
RTVSPost2010Prop46
 90
       50
102
RTVSPost2010PropOp46
 70
     1
102
RTVSPost2010Prop47
 90
       50
102
RTVSPost2010PropOp47
 70
     1
102
RTVSPost2010Prop48
 90
       50
102
RTVSPost2010PropOp48
 70
     1
102
RTVSPost2010Prop49
280
     0
102
RTVSPost2010PropOp49
 70
     1
102
RTVSPost2010Prop50
 90
       50
102
RTVSPost2010PropOp50
 70
     1
102
RTVSPost2010Prop51ColorIndex
 90
      256
102
RTVSPost2010Prop51ColorRGB
 90
-16777216
102
RTVSPost2010PropOp51
 70
     0
102
RTVSPost2010Prop52
140
1.0
102
RTVSPost2010PropOp52
 70
     0
102
RTVSPost2010Prop53
 90
        2
102
RTVSPost2010PropOp53
 70
     1
102
RTVSPost2010Prop54
  1
strokes_ogs.tif
102
RTVSPost2010PropOp54
 70
     1
102
RTVSPost2010Prop55
280
     0
102
RTVSPost2010PropOp55
 70
     1
102
RTVSPost2010Prop56
140
1.0
102
RTVSPost2010PropOp56
 70
     1
102
RTVSPost2010Prop57
140
1.0
102
RTVSPost2010PropOp57
 70
     1
  0
XRECORD
  5
20A
102
{ACAD_REACTORS
330
209
102
}
330
209
100
AcDbXrecord
280
     1
102
RTVSPropertyOp0
 70
     1
102
RTVSPropertyOp1
 70
     1
102
RTVSPropertyOp2
 70
     1
102
RTVSPropertyOp3
 70
     1
102
RTVSPropertyOp4
 70
     1
102
RTVSPropertyOp5
 70
     1
102
RTVSPropertyOp6
 70
     1
102
RTVSPropertyOp7
 70
     1
102
RTVSPropertyOp8
 70
     1
102
RTVSPropertyOp9
 70
     1
102
RTVSPropertyOp10
 70
     1
102
RTVSPropertyOp11
 70
     1
102
RTVSPropertyOp12
 70
     1
102
RTVSPropertyOp13
 70
     1
102
RTVSPropertyOp14
 70
     1
102
RTVSPropertyOp15
 70
     1
102
RTVSPropertyOp16
 70
     1
102
RTVSPropertyOp17
 70
     1
102
RTVSPropertyOp18
 70
     1
102
RTVSPropertyOp19
 70
     1
102
RTVSPropertyOp20
 70
     1
102
RTVSPropertyOp21
 70
     1
102
RTVSPropertyOp22
 70
     1
102
RTVSPropertyOp23
 70
     1
102
RTVSPropertyOp24
 70
     1
102
RTVSPropertyOp25
 70
     1
102
RTVSPropertyOp26
 70
     1
102
RTVSPropertyOp27
 70
     1
102
RTVSPropertyOp28
 70
     1
102
RTVSPropertyOp29
 70
     1
102
RTVSPropertyOp30
 70
     1
102
RTVSPropertyOp31
 70
     1
102
RTVSPropertyOp32
 70
     1
102
RTVSPropertyOp33
 70
     1
102
RTVSPropertyOp34
 70
     1
102
RTVSPropertyOp35
 70
     1
102
RTVSPropertyOp36
 70
     1
102
RTVSPropertyOp37
 70
     1
102
RTVSPropertyOp38
 70
     1
102
RTVSPropertyOp39
 70
     1
102
RTVSPropertyOp40
 70
     1
102
RTVSPropertyOp41
 70
     1
102
RTVSPropertyOp42
 70
     1
102
RTVSPropertyOp43
 70
     1
102
RTVSPropertyOp44
 70
     1
102
RTVSPropertyOp45
 70
     1
102
RTVSPropertyOp46
 70
     1
102
RTVSPropertyOp47
 70
     1
102
RTVSPropertyOp48
 70
     1
102
RTVSPropertyOp49
 70
     1
102
RTVSPropertyOp50
 70
     1
102
RTVSPropertyOp51
 70
     0
102
RTVSPropertyOp52
 70
     0
102
RTVSPropertyOp53
 70
     1
102
RTVSPropertyOp54
 70
     1
102
RTVSPropertyOp55
 70
     1
102
RTVSPropertyOp56
 70
     1
102
RTVSPropertyOp57
 70
     1
102
RTVSPost2010Prop28
280
     0
102
RTVSPost2010PropOp28
 70
     1
102
RTVSPost2010Prop29
280
     1
102
RTVSPost2010PropOp29
 70
     1
102
RTVSPost2010Prop30
280
     1
102
RTVSPost2010PropOp30
 70
     1
102
RTVSPost2010Prop31
280
     0
102
RTVSPost2010PropOp31
 70
     1
102
RTVSPost2010Prop32
280
     0
102
RTVSPost2010PropOp32
 70
     1
102
RTVSPost2010Prop33
280
     0
102
RTVSPost2010PropOp33
 70
     1
102
RTVSPost2010Prop34
280
     0
102
RTVSPost2010PropOp34
 70
     1
102
RTVSPost2010Prop35
280
     0
102
RTVSPost2010PropOp35
 70
     1
102
RTVSPost2010Prop36
280
     0
102
RTVSPost2010PropOp36
 70
     1
102
RTVSPost2010Prop37
 90
       50
102
RTVSPost2010PropOp37
 70
     1
102
RTVSPost2010Prop38
140
0.0
102
RTVSPost2010PropOp38
 70
     1
102
RTVSPost2010Prop39
140
1.0
102
RTVSPost2010PropOp39
 70
     1
102
RTVSPost2010Prop40
 90
        0
102
RTVSPost2010PropOp40
 70
     1
102
RTVSPost2010Prop41ColorIndex
 90
       18
102
RTVSPost2010Prop41ColorRGB
 90
        0
102
RTVSPost2010PropOp41
 70
     1
102
RTVSPost2010Prop42
 90
       50
102
RTVSPost2010PropOp42
 70
     1
102
RTVSPost2010Prop43
 90
        3
102
RTVSPost2010PropOp43
 70
     1
102
RTVSPost2010Prop44ColorIndex
 90
        5
102
RTVSPost2010Prop44ColorRGB
 90
      255
102
RTVSPost2010PropOp44
 70
     1
102
RTVSPost2010Prop45
280
     0
102
RTVSPost2010PropOp45
 70
     1
102
RTVSPost2010Prop46
 90
       50
102
RTVSPost2010PropOp46
 70
     1
102
RTVSPost2010Prop47
 90
       50
102
RTVSPost2010PropOp47
 70
     1
102
RTVSPost2010Prop48
 90
       50
102
RTVSPost2010PropOp48
 70
     1
102
RTVSPost2010Prop49
280
     0
102
RTVSPost2010PropOp49
 70
     1
102
RTVSPost2010Prop50
 90
       50
102
RTVSPost2010PropOp50
 70
     1
102
RTVSPost2010Prop51ColorIndex
 90
      256
102
RTVSPost2010Prop51ColorRGB
 90
-16777216
102
RTVSPost2010PropOp51
 70
     0
102
RTVSPost2010Prop52
140
1.0
102
RTVSPost2010PropOp52
 70
     0
102
RTVSPost2010Prop53
 90
        2
102
RTVSPost2010PropOp53
 70
     1
102
RTVSPost2010Prop54
  1
strokes_ogs.tif
102
RTVSPost2010PropOp54
 70
     1
102
RTVSPost2010Prop55
280
     0
102
RTVSPost2010PropOp55
 70
     1
102
RTVSPost2010Prop56
140
1.0
102
RTVSPost2010PropOp56
 70
     1
102
RTVSPost2010Prop57
140
1.0
102
RTVSPost2010PropOp57
 70
     1
  0
XRECORD
  5
21A
102
{ACAD_REACTORS
330
219
102
}
330
219
100
AcDbXrecord
280
     1
102
RTVSPropertyOp0
 70
     0
102
RTVSPropertyOp1
 70
     0
102
RTVSPropertyOp2
 70
     0
102
RTVSPropertyOp3
 70
     0
102
RTVSPropertyOp4
 70
     0
102
RTVSPropertyOp5
 70
     0
102
RTVSPropertyOp6
 70
     0
102
RTVSPropertyOp7
 70
     0
102
RTVSPropertyOp8
 70
     0
102
RTVSPropertyOp9
 70
     0
102
RTVSPropertyOp10
 70
     0
102
RTVSPropertyOp11
 70
     0
102
RTVSPropertyOp12
 70
     0
102
RTVSPropertyOp13
 70
     0
102
RTVSPropertyOp14
 70
     2
102
RTVSPropertyOp15
 70
     0
102
RTVSPropertyOp16
 70
     0
102
RTVSPropertyOp17
 70
     0
102
RTVSPropertyOp18
 70
     0
102
RTVSPropertyOp19
 70
     0
102
RTVSPropertyOp20
 70
     0
102
RTVSPropertyOp21
 70
     0
102
RTVSPropertyOp22
 70
     0
102
RTVSPropertyOp23
 70
     0
102
RTVSPropertyOp24
 70
     0
102
RTVSPropertyOp25
 70
     0
102
RTVSPropertyOp26
 70
     0
102
RTVSPropertyOp27
 70
     0
102
RTVSPropertyOp28
 70
     0
102
RTVSPropertyOp29
 70
     0
102
RTVSPropertyOp30
 70
     0
102
RTVSPropertyOp31
 70
     0
102
RTVSPropertyOp32
 70
     0
102
RTVSPropertyOp33
 70
     0
102
RTVSPropertyOp34
 70
     0
102
RTVSPropertyOp35
 70
     0
102
RTVSPropertyOp36
 70
     0
102
RTVSPropertyOp37
 70
     0
102
RTVSPropertyOp38
 70
     0
102
RTVSPropertyOp39
 70
     0
102
RTVSPropertyOp40
 70
     0
102
RTVSPropertyOp41
 70
     0
102
RTVSPropertyOp42
 70
     0
102
RTVSPropertyOp43
 70
     0
102
RTVSPropertyOp44
 70
     0
102
RTVSPropertyOp45
 70
     0
102
RTVSPropertyOp46
 70
     0
102
RTVSPropertyOp47
 70
     0
102
RTVSPropertyOp48
 70
     0
102
RTVSPropertyOp49
 70
     0
102
RTVSPropertyOp50
 70
     0
102
RTVSPropertyOp51
 70
     0
102
RTVSPropertyOp52
 70
     0
102
RTVSPropertyOp53
 70
     0
102
RTVSPropertyOp54
 70
     0
102
RTVSPropertyOp55
 70
     0
102
RTVSPropertyOp56
 70
     0
102
RTVSPropertyOp57
 70
     0
102
RTVSPost2010Prop28
280
     0
102
RTVSPost2010PropOp28
 70
     0
102
RTVSPost2010Prop29
280
     1
102
RTVSPost2010PropOp29
 70
     0
102
RTVSPost2010Prop30
280
     1
102
RTVSPost2010PropOp30
 70
     0
102
RTVSPost2010Prop31
280
     0
102
RTVSPost2010PropOp31
 70
     0
102
RTVSPost2010Prop32
280
     0
102
RTVSPost2010PropOp32
 70
     0
102
RTVSPost2010Prop33
280
     0
102
RTVSPost2010PropOp33
 70
     0
102
RTVSPost2010Prop34
280
     0
102
RTVSPost2010PropOp34
 70
     0
102
RTVSPost2010Prop35
280
     0
102
RTVSPost2010PropOp35
 70
     0
102
RTVSPost2010Prop36
280
     0
102
RTVSPost2010PropOp36
 70
     0
102
RTVSPost2010Prop37
 90
       50
102
RTVSPost2010PropOp37
 70
     0
102
RTVSPost2010Prop38
140
0.0
102
RTVSPost2010PropOp38
 70
     0
102
RTVSPost2010Prop39
140
1.0
102
RTVSPost2010PropOp39
 70
     0
102
RTVSPost2010Prop40
 90
        0
102
RTVSPost2010PropOp40
 70
     0
102
RTVSPost2010Prop41ColorIndex
 90
       18
102
RTVSPost2010Prop41ColorRGB
 90
        0
102
RTVSPost2010PropOp41
 70
     0
102
RTVSPost2010Prop42
 90
       50
102
RTVSPost2010PropOp42
 70
     0
102
RTVSPost2010Prop43
 90
        3
102
RTVSPost2010PropOp43
 70
     0
102
RTVSPost2010Prop44ColorIndex
 90
        5
102
RTVSPost2010Prop44ColorRGB
 90
      255
102
RTVSPost2010PropOp44
 70
     0
102
RTVSPost2010Prop45
280
     0
102
RTVSPost2010PropOp45
 70
     0
102
RTVSPost2010Prop46
 90
       50
102
RTVSPost2010PropOp46
 70
     0
102
RTVSPost2010Prop47
 90
       50
102
RTVSPost2010PropOp47
 70
     0
102
RTVSPost2010Prop48
 90
       50
102
RTVSPost2010PropOp48
 70
     0
102
RTVSPost2010Prop49
280
     0
102
RTVSPost2010PropOp49
 70
     0
102
RTVSPost2010Prop50
 90
       50
102
RTVSPost2010PropOp50
 70
     0
102
RTVSPost2010Prop51ColorIndex
 90
      256
102
RTVSPost2010Prop51ColorRGB
 90
-16777216
102
RTVSPost2010PropOp51
 70
     0
102
RTVSPost2010Prop52
140
1.0
102
RTVSPost2010PropOp52
 70
     0
102
RTVSPost2010Prop53
 90
        2
102
RTVSPost2010PropOp53
 70
     0
102
RTVSPost2010Prop54
  1
strokes_ogs.tif
102
RTVSPost2010PropOp54
 70
     0
102
RTVSPost2010Prop55
280
     0
102
RTVSPost2010PropOp55
 70
     0
102
RTVSPost2010Prop56
140
1.0
102
RTVSPost2010PropOp56
 70
     0
102
RTVSPost2010Prop57
140
1.0
102
RTVSPost2010PropOp57
 70
     0
  0
XRECORD
  5
212
102
{ACAD_REACTORS
330
211
102
}
330
211
100
AcDbXrecord
280
     1
102
RTVSPropertyOp0
 70
     1
102
RTVSPropertyOp1
 70
     1
102
RTVSPropertyOp2
 70
     1
102
RTVSPropertyOp3
 70
     1
102
RTVSPropertyOp4
 70
     1
102
RTVSPropertyOp5
 70
     1
102
RTVSPropertyOp6
 70
     1
102
RTVSPropertyOp7
 70
     1
102
RTVSPropertyOp8
 70
     1
102
RTVSPropertyOp9
 70
     1
102
RTVSPropertyOp10
 70
     1
102
RTVSPropertyOp11
 70
     1
102
RTVSPropertyOp12
 70
     1
102
RTVSPropertyOp13
 70
     1
102
RTVSPropertyOp14
 70
     1
102
RTVSPropertyOp15
 70
     1
102
RTVSPropertyOp16
 70
     1
102
RTVSPropertyOp17
 70
     1
102
RTVSPropertyOp18
 70
     1
102
RTVSPropertyOp19
 70
     1
102
RTVSPropertyOp20
 70
     1
102
RTVSPropertyOp21
 70
     1
102
RTVSPropertyOp22
 70
     1
102
RTVSPropertyOp23
 70
     1
102
RTVSPropertyOp24
 70
     1
102
RTVSPropertyOp25
 70
     1
102
RTVSPropertyOp26
 70
     1
102
RTVSPropertyOp27
 70
     1
102
RTVSPropertyOp28
 70
     1
102
RTVSPropertyOp29
 70
     1
102
RTVSPropertyOp30
 70
     1
102
RTVSPropertyOp31
 70
     1
102
RTVSPropertyOp32
 70
     1
102
RTVSPropertyOp33
 70
     1
102
RTVSPropertyOp34
 70
     1
102
RTVSPropertyOp35
 70
     1
102
RTVSPropertyOp36
 70
     1
102
RTVSPropertyOp37
 70
     1
102
RTVSPropertyOp38
 70
     1
102
RTVSPropertyOp39
 70
     1
102
RTVSPropertyOp40
 70
     1
102
RTVSPropertyOp41
 70
     1
102
RTVSPropertyOp42
 70
     1
102
RTVSPropertyOp43
 70
     1
102
RTVSPropertyOp44
 70
     1
102
RTVSPropertyOp45
 70
     1
102
RTVSPropertyOp46
 70
     1
102
RTVSPropertyOp47
 70
     1
102
RTVSPropertyOp48
 70
     1
102
RTVSPropertyOp49
 70
     1
102
RTVSPropertyOp50
 70
     1
102
RTVSPropertyOp51
 70
     0
102
RTVSPropertyOp52
 70
     0
102
RTVSPropertyOp53
 70
     1
102
RTVSPropertyOp54
 70
     1
102
RTVSPropertyOp55
 70
     1
102
RTVSPropertyOp56
 70
     1
102
RTVSPropertyOp57
 70
     1
102
RTVSPost2010Prop28
280
     0
102
RTVSPost2010PropOp28
 70
     1
102
RTVSPost2010Prop29
280
     1
102
RTVSPost2010PropOp29
 70
     1
102
RTVSPost2010Prop30
280
     1
102
RTVSPost2010PropOp30
 70
     1
102
RTVSPost2010Prop31
280
     0
102
RTVSPost2010PropOp31
 70
     1
102
RTVSPost2010Prop32
280
     0
102
RTVSPost2010PropOp32
 70
     1
102
RTVSPost2010Prop33
280
     0
102
RTVSPost2010PropOp33
 70
     1
102
RTVSPost2010Prop34
280
     0
102
RTVSPost2010PropOp34
 70
     1
102
RTVSPost2010Prop35
280
     0
102
RTVSPost2010PropOp35
 70
     1
102
RTVSPost2010Prop36
280
     0
102
RTVSPost2010PropOp36
 70
     1
102
RTVSPost2010Prop37
 90
       50
102
RTVSPost2010PropOp37
 70
     1
102
RTVSPost2010Prop38
140
0.0
102
RTVSPost2010PropOp38
 70
     1
102
RTVSPost2010Prop39
140
1.0
102
RTVSPost2010PropOp39
 70
     1
102
RTVSPost2010Prop40
 90
        0
102
RTVSPost2010PropOp40
 70
     1
102
RTVSPost2010Prop41ColorIndex
 90
       18
102
RTVSPost2010Prop41ColorRGB
 90
        0
102
RTVSPost2010PropOp41
 70
     1
102
RTVSPost2010Prop42
 90
       50
102
RTVSPost2010PropOp42
 70
     1
102
RTVSPost2010Prop43
 90
        3
102
RTVSPost2010PropOp43
 70
     1
102
RTVSPost2010Prop44ColorIndex
 90
        5
102
RTVSPost2010Prop44ColorRGB
 90
      255
102
RTVSPost2010PropOp44
 70
     1
102
RTVSPost2010Prop45
280
     0
102
RTVSPost2010PropOp45
 70
     1
102
RTVSPost2010Prop46
 90
       50
102
RTVSPost2010PropOp46
 70
     1
102
RTVSPost2010Prop47
 90
       50
102
RTVSPost2010PropOp47
 70
     1
102
RTVSPost2010Prop48
 90
       50
102
RTVSPost2010PropOp48
 70
     1
102
RTVSPost2010Prop49
280
     0
102
RTVSPost2010PropOp49
 70
     1
102
RTVSPost2010Prop50
 90
       50
102
RTVSPost2010PropOp50
 70
     1
102
RTVSPost2010Prop51ColorIndex
 90
      256
102
RTVSPost2010Prop51ColorRGB
 90
-16777216
102
RTVSPost2010PropOp51
 70
     0
102
RTVSPost2010Prop52
140
1.0
102
RTVSPost2010PropOp52
 70
     0
102
RTVSPost2010Prop53
 90
        2
102
RTVSPost2010PropOp53
 70
     1
102
RTVSPost2010Prop54
  1
strokes_ogs.tif
102
RTVSPost2010PropOp54
 70
     1
102
RTVSPost2010Prop55
280
     0
102
RTVSPost2010PropOp55
 70
     1
102
RTVSPost2010Prop56
140
1.0
102
RTVSPost2010PropOp56
 70
     1
102
RTVSPost2010Prop57
140
1.0
102
RTVSPost2010PropOp57
 70
     1
  0
XRECORD
  5
1F6
102
{ACAD_REACTORS
330
1F5
102
}
330
1F5
100
AcDbXrecord
280
     1
102
RTVSPropertyOp0
 70
     1
102
RTVSPropertyOp1
 70
     1
102
RTVSPropertyOp2
 70
     1
102
RTVSPropertyOp3
 70
     1
102
RTVSPropertyOp4
 70
     1
102
RTVSPropertyOp5
 70
     1
102
RTVSPropertyOp6
 70
     1
102
RTVSPropertyOp7
 70
     1
102
RTVSPropertyOp8
 70
     1
102
RTVSPropertyOp9
 70
     1
102
RTVSPropertyOp10
 70
     1
102
RTVSPropertyOp11
 70
     1
102
RTVSPropertyOp12
 70
     1
102
RTVSPropertyOp13
 70
     1
102
RTVSPropertyOp14
 70
     1
102
RTVSPropertyOp15
 70
     1
102
RTVSPropertyOp16
 70
     1
102
RTVSPropertyOp17
 70
     1
102
RTVSPropertyOp18
 70
     1
102
RTVSPropertyOp19
 70
     1
102
RTVSPropertyOp20
 70
     1
102
RTVSPropertyOp21
 70
     1
102
RTVSPropertyOp22
 70
     1
102
RTVSPropertyOp23
 70
     1
102
RTVSPropertyOp24
 70
     1
102
RTVSPropertyOp25
 70
     1
102
RTVSPropertyOp26
 70
     1
102
RTVSPropertyOp27
 70
     1
102
RTVSPropertyOp28
 70
     1
102
RTVSPropertyOp29
 70
     1
102
RTVSPropertyOp30
 70
     1
102
RTVSPropertyOp31
 70
     1
102
RTVSPropertyOp32
 70
     1
102
RTVSPropertyOp33
 70
     1
102
RTVSPropertyOp34
 70
     1
102
RTVSPropertyOp35
 70
     1
102
RTVSPropertyOp36
 70
     1
102
RTVSPropertyOp37
 70
     1
102
RTVSPropertyOp38
 70
     1
102
RTVSPropertyOp39
 70
     1
102
RTVSPropertyOp40
 70
     1
102
RTVSPropertyOp41
 70
     1
102
RTVSPropertyOp42
 70
     1
102
RTVSPropertyOp43
 70
     1
102
RTVSPropertyOp44
 70
     1
102
RTVSPropertyOp45
 70
     1
102
RTVSPropertyOp46
 70
     1
102
RTVSPropertyOp47
 70
     1
102
RTVSPropertyOp48
 70
     1
102
RTVSPropertyOp49
 70
     1
102
RTVSPropertyOp50
 70
     1
102
RTVSPropertyOp51
 70
     0
102
RTVSPropertyOp52
 70
     0
102
RTVSPropertyOp53
 70
     1
102
RTVSPropertyOp54
 70
     1
102
RTVSPropertyOp55
 70
     1
102
RTVSPropertyOp56
 70
     1
102
RTVSPropertyOp57
 70
     1
102
RTVSPost2010Prop28
280
     0
102
RTVSPost2010PropOp28
 70
     1
102
RTVSPost2010Prop29
280
     1
102
RTVSPost2010PropOp29
 70
     1
102
RTVSPost2010Prop30
280
     1
102
RTVSPost2010PropOp30
 70
     1
102
RTVSPost2010Prop31
280
     0
102
RTVSPost2010PropOp31
 70
     1
102
RTVSPost2010Prop32
280
     0
102
RTVSPost2010PropOp32
 70
     1
102
RTVSPost2010Prop33
280
     0
102
RTVSPost2010PropOp33
 70
     1
102
RTVSPost2010Prop34
280
     0
102
RTVSPost2010PropOp34
 70
     1
102
RTVSPost2010Prop35
280
     0
102
RTVSPost2010PropOp35
 70
     1
102
RTVSPost2010Prop36
280
     0
102
RTVSPost2010PropOp36
 70
     1
102
RTVSPost2010Prop37
 90
       50
102
RTVSPost2010PropOp37
 70
     1
102
RTVSPost2010Prop38
140
0.0
102
RTVSPost2010PropOp38
 70
     1
102
RTVSPost2010Prop39
140
1.0
102
RTVSPost2010PropOp39
 70
     1
102
RTVSPost2010Prop40
 90
        0
102
RTVSPost2010PropOp40
 70
     1
102
RTVSPost2010Prop41ColorIndex
 90
       18
102
RTVSPost2010Prop41ColorRGB
 90
        0
102
RTVSPost2010PropOp41
 70
     1
102
RTVSPost2010Prop42
 90
       50
102
RTVSPost2010PropOp42
 70
     1
102
RTVSPost2010Prop43
 90
        3
102
RTVSPost2010PropOp43
 70
     1
102
RTVSPost2010Prop44ColorIndex
 90
        5
102
RTVSPost2010Prop44ColorRGB
 90
      255
102
RTVSPost2010PropOp44
 70
     1
102
RTVSPost2010Prop45
280
     0
102
RTVSPost2010PropOp45
 70
     1
102
RTVSPost2010Prop46
 90
       50
102
RTVSPost2010PropOp46
 70
     1
102
RTVSPost2010Prop47
 90
       50
102
RTVSPost2010PropOp47
 70
     1
102
RTVSPost2010Prop48
 90
       50
102
RTVSPost2010PropOp48
 70
     1
102
RTVSPost2010Prop49
280
     0
102
RTVSPost2010PropOp49
 70
     1
102
RTVSPost2010Prop50
 90
       50
102
RTVSPost2010PropOp50
 70
     1
102
RTVSPost2010Prop51ColorIndex
 90
      256
102
RTVSPost2010Prop51ColorRGB
 90
-16777216
102
RTVSPost2010PropOp51
 70
     0
102
RTVSPost2010Prop52
140
1.0
102
RTVSPost2010PropOp52
 70
     0
102
RTVSPost2010Prop53
 90
        2
102
RTVSPost2010PropOp53
 70
     1
102
RTVSPost2010Prop54
  1
strokes_ogs.tif
102
RTVSPost2010PropOp54
 70
     1
102
RTVSPost2010Prop55
280
     0
102
RTVSPost2010PropOp55
 70
     1
102
RTVSPost2010Prop56
140
1.0
102
RTVSPost2010PropOp56
 70
     1
102
RTVSPost2010Prop57
140
1.0
102
RTVSPost2010PropOp57
 70
     1
  0
XRECORD
  5
1F8
102
{ACAD_REACTORS
330
1F7
102
}
330
1F7
100
AcDbXrecord
280
     1
102
RTVSPropertyOp0
 70
     1
102
RTVSPropertyOp1
 70
     1
102
RTVSPropertyOp2
 70
     1
102
RTVSPropertyOp3
 70
     1
102
RTVSPropertyOp4
 70
     1
102
RTVSPropertyOp5
 70
     1
102
RTVSPropertyOp6
 70
     1
102
RTVSPropertyOp7
 70
     1
102
RTVSPropertyOp8
 70
     1
102
RTVSPropertyOp9
 70
     1
102
RTVSPropertyOp10
 70
     1
102
RTVSPropertyOp11
 70
     1
102
RTVSPropertyOp12
 70
     1
102
RTVSPropertyOp13
 70
     1
102
RTVSPropertyOp14
 70
     1
102
RTVSPropertyOp15
 70
     1
102
RTVSPropertyOp16
 70
     1
102
RTVSPropertyOp17
 70
     1
102
RTVSPropertyOp18
 70
     1
102
RTVSPropertyOp19
 70
     1
102
RTVSPropertyOp20
 70
     1
102
RTVSPropertyOp21
 70
     1
102
RTVSPropertyOp22
 70
     1
102
RTVSPropertyOp23
 70
     1
102
RTVSPropertyOp24
 70
     1
102
RTVSPropertyOp25
 70
     1
102
RTVSPropertyOp26
 70
     1
102
RTVSPropertyOp27
 70
     1
102
RTVSPropertyOp28
 70
     1
102
RTVSPropertyOp29
 70
     1
102
RTVSPropertyOp30
 70
     1
102
RTVSPropertyOp31
 70
     1
102
RTVSPropertyOp32
 70
     1
102
RTVSPropertyOp33
 70
     1
102
RTVSPropertyOp34
 70
     1
102
RTVSPropertyOp35
 70
     1
102
RTVSPropertyOp36
 70
     1
102
RTVSPropertyOp37
 70
     1
102
RTVSPropertyOp38
 70
     1
102
RTVSPropertyOp39
 70
     1
102
RTVSPropertyOp40
 70
     1
102
RTVSPropertyOp41
 70
     1
102
RTVSPropertyOp42
 70
     1
102
RTVSPropertyOp43
 70
     1
102
RTVSPropertyOp44
 70
     1
102
RTVSPropertyOp45
 70
     1
102
RTVSPropertyOp46
 70
     1
102
RTVSPropertyOp47
 70
     1
102
RTVSPropertyOp48
 70
     1
102
RTVSPropertyOp49
 70
     1
102
RTVSPropertyOp50
 70
     1
102
RTVSPropertyOp51
 70
     0
102
RTVSPropertyOp52
 70
     0
102
RTVSPropertyOp53
 70
     1
102
RTVSPropertyOp54
 70
     1
102
RTVSPropertyOp55
 70
     1
102
RTVSPropertyOp56
 70
     1
102
RTVSPropertyOp57
 70
     1
102
RTVSPost2010Prop28
280
     0
102
RTVSPost2010PropOp28
 70
     1
102
RTVSPost2010Prop29
280
     1
102
RTVSPost2010PropOp29
 70
     1
102
RTVSPost2010Prop30
280
     1
102
RTVSPost2010PropOp30
 70
     1
102
RTVSPost2010Prop31
280
     0
102
RTVSPost2010PropOp31
 70
     1
102
RTVSPost2010Prop32
280
     0
102
RTVSPost2010PropOp32
 70
     1
102
RTVSPost2010Prop33
280
     0
102
RTVSPost2010PropOp33
 70
     1
102
RTVSPost2010Prop34
280
     0
102
RTVSPost2010PropOp34
 70
     1
102
RTVSPost2010Prop35
280
     0
102
RTVSPost2010PropOp35
 70
     1
102
RTVSPost2010Prop36
280
     0
102
RTVSPost2010PropOp36
 70
     1
102
RTVSPost2010Prop37
 90
       50
102
RTVSPost2010PropOp37
 70
     1
102
RTVSPost2010Prop38
140
0.0
102
RTVSPost2010PropOp38
 70
     1
102
RTVSPost2010Prop39
140
1.0
102
RTVSPost2010PropOp39
 70
     1
102
RTVSPost2010Prop40
 90
        0
102
RTVSPost2010PropOp40
 70
     1
102
RTVSPost2010Prop41ColorIndex
 90
       18
102
RTVSPost2010Prop41ColorRGB
 90
        0
102
RTVSPost2010PropOp41
 70
     1
102
RTVSPost2010Prop42
 90
       50
102
RTVSPost2010PropOp42
 70
     1
102
RTVSPost2010Prop43
 90
        3
102
RTVSPost2010PropOp43
 70
     1
102
RTVSPost2010Prop44ColorIndex
 90
        5
102
RTVSPost2010Prop44ColorRGB
 90
      255
102
RTVSPost2010PropOp44
 70
     1
102
RTVSPost2010Prop45
280
     0
102
RTVSPost2010PropOp45
 70
     1
102
RTVSPost2010Prop46
 90
       50
102
RTVSPost2010PropOp46
 70
     1
102
RTVSPost2010Prop47
 90
       50
102
RTVSPost2010PropOp47
 70
     1
102
RTVSPost2010Prop48
 90
       50
102
RTVSPost2010PropOp48
 70
     1
102
RTVSPost2010Prop49
280
     0
102
RTVSPost2010PropOp49
 70
     1
102
RTVSPost2010Prop50
 90
       50
102
RTVSPost2010PropOp50
 70
     1
102
RTVSPost2010Prop51ColorIndex
 90
      256
102
RTVSPost2010Prop51ColorRGB
 90
-16777216
102
RTVSPost2010PropOp51
 70
     0
102
RTVSPost2010Prop52
140
1.0
102
RTVSPost2010PropOp52
 70
     0
102
RTVSPost2010Prop53
 90
        2
102
RTVSPost2010PropOp53
 70
     1
102
RTVSPost2010Prop54
  1
strokes_ogs.tif
102
RTVSPost2010PropOp54
 70
     1
102
RTVSPost2010Prop55
280
     0
102
RTVSPost2010PropOp55
 70
     1
102
RTVSPost2010Prop56
140
1.0
102
RTVSPost2010PropOp56
 70
     1
102
RTVSPost2010Prop57
140
1.0
102
RTVSPost2010PropOp57
 70
     1
  0
XRECORD
  5
1FA
102
{ACAD_REACTORS
330
1F9
102
}
330
1F9
100
AcDbXrecord
280
     1
102
RTVSPropertyOp0
 70
     1
102
RTVSPropertyOp1
 70
     1
102
RTVSPropertyOp2
 70
     1
102
RTVSPropertyOp3
 70
     1
102
RTVSPropertyOp4
 70
     1
102
RTVSPropertyOp5
 70
     1
102
RTVSPropertyOp6
 70
     1
102
RTVSPropertyOp7
 70
     1
102
RTVSPropertyOp8
 70
     1
102
RTVSPropertyOp9
 70
     1
102
RTVSPropertyOp10
 70
     1
102
RTVSPropertyOp11
 70
     1
102
RTVSPropertyOp12
 70
     1
102
RTVSPropertyOp13
 70
     1
102
RTVSPropertyOp14
 70
     1
102
RTVSPropertyOp15
 70
     1
102
RTVSPropertyOp16
 70
     1
102
RTVSPropertyOp17
 70
     1
102
RTVSPropertyOp18
 70
     1
102
RTVSPropertyOp19
 70
     1
102
RTVSPropertyOp20
 70
     1
102
RTVSPropertyOp21
 70
     1
102
RTVSPropertyOp22
 70
     1
102
RTVSPropertyOp23
 70
     1
102
RTVSPropertyOp24
 70
     1
102
RTVSPropertyOp25
 70
     1
102
RTVSPropertyOp26
 70
     1
102
RTVSPropertyOp27
 70
     1
102
RTVSPropertyOp28
 70
     1
102
RTVSPropertyOp29
 70
     1
102
RTVSPropertyOp30
 70
     1
102
RTVSPropertyOp31
 70
     1
102
RTVSPropertyOp32
 70
     1
102
RTVSPropertyOp33
 70
     1
102
RTVSPropertyOp34
 70
     1
102
RTVSPropertyOp35
 70
     1
102
RTVSPropertyOp36
 70
     1
102
RTVSPropertyOp37
 70
     1
102
RTVSPropertyOp38
 70
     1
102
RTVSPropertyOp39
 70
     1
102
RTVSPropertyOp40
 70
     1
102
RTVSPropertyOp41
 70
     1
102
RTVSPropertyOp42
 70
     1
102
RTVSPropertyOp43
 70
     1
102
RTVSPropertyOp44
 70
     1
102
RTVSPropertyOp45
 70
     1
102
RTVSPropertyOp46
 70
     1
102
RTVSPropertyOp47
 70
     1
102
RTVSPropertyOp48
 70
     1
102
RTVSPropertyOp49
 70
     1
102
RTVSPropertyOp50
 70
     1
102
RTVSPropertyOp51
 70
     0
102
RTVSPropertyOp52
 70
     0
102
RTVSPropertyOp53
 70
     1
102
RTVSPropertyOp54
 70
     1
102
RTVSPropertyOp55
 70
     1
102
RTVSPropertyOp56
 70
     1
102
RTVSPropertyOp57
 70
     1
102
RTVSPost2010Prop28
280
     0
102
RTVSPost2010PropOp28
 70
     1
102
RTVSPost2010Prop29
280
     1
102
RTVSPost2010PropOp29
 70
     1
102
RTVSPost2010Prop30
280
     1
102
RTVSPost2010PropOp30
 70
     1
102
RTVSPost2010Prop31
280
     0
102
RTVSPost2010PropOp31
 70
     1
102
RTVSPost2010Prop32
280
     0
102
RTVSPost2010PropOp32
 70
     1
102
RTVSPost2010Prop33
280
     0
102
RTVSPost2010PropOp33
 70
     1
102
RTVSPost2010Prop34
280
     0
102
RTVSPost2010PropOp34
 70
     1
102
RTVSPost2010Prop35
280
     0
102
RTVSPost2010PropOp35
 70
     1
102
RTVSPost2010Prop36
280
     0
102
RTVSPost2010PropOp36
 70
     1
102
RTVSPost2010Prop37
 90
       50
102
RTVSPost2010PropOp37
 70
     1
102
RTVSPost2010Prop38
140
0.0
102
RTVSPost2010PropOp38
 70
     1
102
RTVSPost2010Prop39
140
1.0
102
RTVSPost2010PropOp39
 70
     1
102
RTVSPost2010Prop40
 90
        0
102
RTVSPost2010PropOp40
 70
     1
102
RTVSPost2010Prop41ColorIndex
 90
       18
102
RTVSPost2010Prop41ColorRGB
 90
        0
102
RTVSPost2010PropOp41
 70
     1
102
RTVSPost2010Prop42
 90
       50
102
RTVSPost2010PropOp42
 70
     1
102
RTVSPost2010Prop43
 90
        3
102
RTVSPost2010PropOp43
 70
     1
102
RTVSPost2010Prop44ColorIndex
 90
        5
102
RTVSPost2010Prop44ColorRGB
 90
      255
102
RTVSPost2010PropOp44
 70
     1
102
RTVSPost2010Prop45
280
     0
102
RTVSPost2010PropOp45
 70
     1
102
RTVSPost2010Prop46
 90
       50
102
RTVSPost2010PropOp46
 70
     1
102
RTVSPost2010Prop47
 90
       50
102
RTVSPost2010PropOp47
 70
     1
102
RTVSPost2010Prop48
 90
       50
102
RTVSPost2010PropOp48
 70
     1
102
RTVSPost2010Prop49
280
     0
102
RTVSPost2010PropOp49
 70
     1
102
RTVSPost2010Prop50
 90
       50
102
RTVSPost2010PropOp50
 70
     1
102
RTVSPost2010Prop51ColorIndex
 90
      256
102
RTVSPost2010Prop51ColorRGB
 90
-16777216
102
RTVSPost2010PropOp51
 70
     0
102
RTVSPost2010Prop52
140
1.0
102
RTVSPost2010PropOp52
 70
     0
102
RTVSPost2010Prop53
 90
        2
102
RTVSPost2010PropOp53
 70
     1
102
RTVSPost2010Prop54
  1
strokes_ogs.tif
102
RTVSPost2010PropOp54
 70
     1
102
RTVSPost2010Prop55
280
     0
102
RTVSPost2010PropOp55
 70
     1
102
RTVSPost2010Prop56
140
1.0
102
RTVSPost2010PropOp56
 70
     1
102
RTVSPost2010Prop57
140
1.0
102
RTVSPost2010PropOp57
 70
     1
  0
XRECORD
  5
1FC
102
{ACAD_REACTORS
330
1FB
102
}
330
1FB
100
AcDbXrecord
280
     1
102
RTVSPropertyOp0
 70
     1
102
RTVSPropertyOp1
 70
     1
102
RTVSPropertyOp2
 70
     1
102
RTVSPropertyOp3
 70
     1
102
RTVSPropertyOp4
 70
     1
102
RTVSPropertyOp5
 70
     1
102
RTVSPropertyOp6
 70
     1
102
RTVSPropertyOp7
 70
     1
102
RTVSPropertyOp8
 70
     1
102
RTVSPropertyOp9
 70
     1
102
RTVSPropertyOp10
 70
     1
102
RTVSPropertyOp11
 70
     1
102
RTVSPropertyOp12
 70
     1
102
RTVSPropertyOp13
 70
     1
102
RTVSPropertyOp14
 70
     1
102
RTVSPropertyOp15
 70
     1
102
RTVSPropertyOp16
 70
     1
102
RTVSPropertyOp17
 70
     1
102
RTVSPropertyOp18
 70
     1
102
RTVSPropertyOp19
 70
     1
102
RTVSPropertyOp20
 70
     1
102
RTVSPropertyOp21
 70
     1
102
RTVSPropertyOp22
 70
     1
102
RTVSPropertyOp23
 70
     1
102
RTVSPropertyOp24
 70
     1
102
RTVSPropertyOp25
 70
     1
102
RTVSPropertyOp26
 70
     1
102
RTVSPropertyOp27
 70
     1
102
RTVSPropertyOp28
 70
     1
102
RTVSPropertyOp29
 70
     1
102
RTVSPropertyOp30
 70
     1
102
RTVSPropertyOp31
 70
     1
102
RTVSPropertyOp32
 70
     1
102
RTVSPropertyOp33
 70
     1
102
RTVSPropertyOp34
 70
     1
102
RTVSPropertyOp35
 70
     1
102
RTVSPropertyOp36
 70
     1
102
RTVSPropertyOp37
 70
     1
102
RTVSPropertyOp38
 70
     1
102
RTVSPropertyOp39
 70
     1
102
RTVSPropertyOp40
 70
     1
102
RTVSPropertyOp41
 70
     1
102
RTVSPropertyOp42
 70
     1
102
RTVSPropertyOp43
 70
     1
102
RTVSPropertyOp44
 70
     1
102
RTVSPropertyOp45
 70
     1
102
RTVSPropertyOp46
 70
     1
102
RTVSPropertyOp47
 70
     1
102
RTVSPropertyOp48
 70
     1
102
RTVSPropertyOp49
 70
     1
102
RTVSPropertyOp50
 70
     1
102
RTVSPropertyOp51
 70
     0
102
RTVSPropertyOp52
 70
     0
102
RTVSPropertyOp53
 70
     1
102
RTVSPropertyOp54
 70
     1
102
RTVSPropertyOp55
 70
     1
102
RTVSPropertyOp56
 70
     1
102
RTVSPropertyOp57
 70
     1
102
RTVSPost2010Prop28
280
     0
102
RTVSPost2010PropOp28
 70
     1
102
RTVSPost2010Prop29
280
     1
102
RTVSPost2010PropOp29
 70
     1
102
RTVSPost2010Prop30
280
     1
102
RTVSPost2010PropOp30
 70
     1
102
RTVSPost2010Prop31
280
     0
102
RTVSPost2010PropOp31
 70
     1
102
RTVSPost2010Prop32
280
     0
102
RTVSPost2010PropOp32
 70
     1
102
RTVSPost2010Prop33
280
     0
102
RTVSPost2010PropOp33
 70
     1
102
RTVSPost2010Prop34
280
     0
102
RTVSPost2010PropOp34
 70
     1
102
RTVSPost2010Prop35
280
     0
102
RTVSPost2010PropOp35
 70
     1
102
RTVSPost2010Prop36
280
     0
102
RTVSPost2010PropOp36
 70
     1
102
RTVSPost2010Prop37
 90
       50
102
RTVSPost2010PropOp37
 70
     1
102
RTVSPost2010Prop38
140
0.0
102
RTVSPost2010PropOp38
 70
     1
102
RTVSPost2010Prop39
140
1.0
102
RTVSPost2010PropOp39
 70
     1
102
RTVSPost2010Prop40
 90
        0
102
RTVSPost2010PropOp40
 70
     1
102
RTVSPost2010Prop41ColorIndex
 90
       18
102
RTVSPost2010Prop41ColorRGB
 90
        0
102
RTVSPost2010PropOp41
 70
     1
102
RTVSPost2010Prop42
 90
       50
102
RTVSPost2010PropOp42
 70
     1
102
RTVSPost2010Prop43
 90
        3
102
RTVSPost2010PropOp43
 70
     1
102
RTVSPost2010Prop44ColorIndex
 90
        5
102
RTVSPost2010Prop44ColorRGB
 90
      255
102
RTVSPost2010PropOp44
 70
     1
102
RTVSPost2010Prop45
280
     0
102
RTVSPost2010PropOp45
 70
     1
102
RTVSPost2010Prop46
 90
       50
102
RTVSPost2010PropOp46
 70
     1
102
RTVSPost2010Prop47
 90
       50
102
RTVSPost2010PropOp47
 70
     1
102
RTVSPost2010Prop48
 90
       50
102
RTVSPost2010PropOp48
 70
     1
102
RTVSPost2010Prop49
280
     0
102
RTVSPost2010PropOp49
 70
     1
102
RTVSPost2010Prop50
 90
       50
102
RTVSPost2010PropOp50
 70
     1
102
RTVSPost2010Prop51ColorIndex
 90
      256
102
RTVSPost2010Prop51ColorRGB
 90
-16777216
102
RTVSPost2010PropOp51
 70
     0
102
RTVSPost2010Prop52
140
1.0
102
RTVSPost2010PropOp52
 70
     0
102
RTVSPost2010Prop53
 90
        2
102
RTVSPost2010PropOp53
 70
     1
102
RTVSPost2010Prop54
  1
strokes_ogs.tif
102
RTVSPost2010PropOp54
 70
     1
102
RTVSPost2010Prop55
280
     0
102
RTVSPost2010PropOp55
 70
     1
102
RTVSPost2010Prop56
140
1.0
102
RTVSPost2010PropOp56
 70
     1
102
RTVSPost2010Prop57
140
1.0
102
RTVSPost2010PropOp57
 70
     1
  0
XRECORD
  5
202
102
{ACAD_REACTORS
330
201
102
}
330
201
100
AcDbXrecord
280
     1
102
RTVSPropertyOp0
 70
     1
102
RTVSPropertyOp1
 70
     1
102
RTVSPropertyOp2
 70
     1
102
RTVSPropertyOp3
 70
     1
102
RTVSPropertyOp4
 70
     1
102
RTVSPropertyOp5
 70
     1
102
RTVSPropertyOp6
 70
     1
102
RTVSPropertyOp7
 70
     1
102
RTVSPropertyOp8
 70
     1
102
RTVSPropertyOp9
 70
     1
102
RTVSPropertyOp10
 70
     1
102
RTVSPropertyOp11
 70
     1
102
RTVSPropertyOp12
 70
     1
102
RTVSPropertyOp13
 70
     1
102
RTVSPropertyOp14
 70
     1
102
RTVSPropertyOp15
 70
     1
102
RTVSPropertyOp16
 70
     1
102
RTVSPropertyOp17
 70
     1
102
RTVSPropertyOp18
 70
     1
102
RTVSPropertyOp19
 70
     1
102
RTVSPropertyOp20
 70
     1
102
RTVSPropertyOp21
 70
     1
102
RTVSPropertyOp22
 70
     1
102
RTVSPropertyOp23
 70
     1
102
RTVSPropertyOp24
 70
     1
102
RTVSPropertyOp25
 70
     1
102
RTVSPropertyOp26
 70
     1
102
RTVSPropertyOp27
 70
     1
102
RTVSPropertyOp28
 70
     1
102
RTVSPropertyOp29
 70
     1
102
RTVSPropertyOp30
 70
     1
102
RTVSPropertyOp31
 70
     1
102
RTVSPropertyOp32
 70
     1
102
RTVSPropertyOp33
 70
     1
102
RTVSPropertyOp34
 70
     1
102
RTVSPropertyOp35
 70
     1
102
RTVSPropertyOp36
 70
     1
102
RTVSPropertyOp37
 70
     1
102
RTVSPropertyOp38
 70
     1
102
RTVSPropertyOp39
 70
     1
102
RTVSPropertyOp40
 70
     1
102
RTVSPropertyOp41
 70
     1
102
RTVSPropertyOp42
 70
     1
102
RTVSPropertyOp43
 70
     1
102
RTVSPropertyOp44
 70
     1
102
RTVSPropertyOp45
 70
     1
102
RTVSPropertyOp46
 70
     1
102
RTVSPropertyOp47
 70
     1
102
RTVSPropertyOp48
 70
     1
102
RTVSPropertyOp49
 70
     1
102
RTVSPropertyOp50
 70
     1
102
RTVSPropertyOp51
 70
     0
102
RTVSPropertyOp52
 70
     0
102
RTVSPropertyOp53
 70
     1
102
RTVSPropertyOp54
 70
     1
102
RTVSPropertyOp55
 70
     1
102
RTVSPropertyOp56
 70
     1
102
RTVSPropertyOp57
 70
     1
102
RTVSPost2010Prop28
280
     0
102
RTVSPost2010PropOp28
 70
     1
102
RTVSPost2010Prop29
280
     1
102
RTVSPost2010PropOp29
 70
     1
102
RTVSPost2010Prop30
280
     1
102
RTVSPost2010PropOp30
 70
     1
102
RTVSPost2010Prop31
280
     0
102
RTVSPost2010PropOp31
 70
     1
102
RTVSPost2010Prop32
280
     0
102
RTVSPost2010PropOp32
 70
     1
102
RTVSPost2010Prop33
280
     0
102
RTVSPost2010PropOp33
 70
     1
102
RTVSPost2010Prop34
280
     0
102
RTVSPost2010PropOp34
 70
     1
102
RTVSPost2010Prop35
280
     0
102
RTVSPost2010PropOp35
 70
     1
102
RTVSPost2010Prop36
280
     0
102
RTVSPost2010PropOp36
 70
     1
102
RTVSPost2010Prop37
 90
       50
102
RTVSPost2010PropOp37
 70
     1
102
RTVSPost2010Prop38
140
0.0
102
RTVSPost2010PropOp38
 70
     1
102
RTVSPost2010Prop39
140
1.0
102
RTVSPost2010PropOp39
 70
     1
102
RTVSPost2010Prop40
 90
        0
102
RTVSPost2010PropOp40
 70
     1
102
RTVSPost2010Prop41ColorIndex
 90
       18
102
RTVSPost2010Prop41ColorRGB
 90
        0
102
RTVSPost2010PropOp41
 70
     1
102
RTVSPost2010Prop42
 90
       50
102
RTVSPost2010PropOp42
 70
     1
102
RTVSPost2010Prop43
 90
        3
102
RTVSPost2010PropOp43
 70
     1
102
RTVSPost2010Prop44ColorIndex
 90
        5
102
RTVSPost2010Prop44ColorRGB
 90
      255
102
RTVSPost2010PropOp44
 70
     1
102
RTVSPost2010Prop45
280
     0
102
RTVSPost2010PropOp45
 70
     1
102
RTVSPost2010Prop46
 90
       50
102
RTVSPost2010PropOp46
 70
     1
102
RTVSPost2010Prop47
 90
       50
102
RTVSPost2010PropOp47
 70
     1
102
RTVSPost2010Prop48
 90
       50
102
RTVSPost2010PropOp48
 70
     1
102
RTVSPost2010Prop49
280
     0
102
RTVSPost2010PropOp49
 70
     1
102
RTVSPost2010Prop50
 90
       50
102
RTVSPost2010PropOp50
 70
     1
102
RTVSPost2010Prop51ColorIndex
 90
      256
102
RTVSPost2010Prop51ColorRGB
 90
-16777216
102
RTVSPost2010PropOp51
 70
     0
102
RTVSPost2010Prop52
140
1.0
102
RTVSPost2010PropOp52
 70
     0
102
RTVSPost2010Prop53
 90
        2
102
RTVSPost2010PropOp53
 70
     1
102
RTVSPost2010Prop54
  1
strokes_ogs.tif
102
RTVSPost2010PropOp54
 70
     1
102
RTVSPost2010Prop55
280
     0
102
RTVSPost2010PropOp55
 70
     1
102
RTVSPost2010Prop56
140
1.0
102
RTVSPost2010PropOp56
 70
     1
102
RTVSPost2010Prop57
140
1.0
102
RTVSPost2010PropOp57
 70
     1
  0
XRECORD
  5
216
102
{ACAD_REACTORS
330
215
102
}
330
215
100
AcDbXrecord
280
     1
102
RTVSPropertyOp0
 70
     0
102
RTVSPropertyOp1
 70
     0
102
RTVSPropertyOp2
 70
     0
102
RTVSPropertyOp3
 70
     0
102
RTVSPropertyOp4
 70
     0
102
RTVSPropertyOp5
 70
     0
102
RTVSPropertyOp6
 70
     0
102
RTVSPropertyOp7
 70
     0
102
RTVSPropertyOp8
 70
     0
102
RTVSPropertyOp9
 70
     0
102
RTVSPropertyOp10
 70
     0
102
RTVSPropertyOp11
 70
     0
102
RTVSPropertyOp12
 70
     0
102
RTVSPropertyOp13
 70
     0
102
RTVSPropertyOp14
 70
     2
102
RTVSPropertyOp15
 70
     0
102
RTVSPropertyOp16
 70
     0
102
RTVSPropertyOp17
 70
     0
102
RTVSPropertyOp18
 70
     0
102
RTVSPropertyOp19
 70
     0
102
RTVSPropertyOp20
 70
     0
102
RTVSPropertyOp21
 70
     0
102
RTVSPropertyOp22
 70
     0
102
RTVSPropertyOp23
 70
     0
102
RTVSPropertyOp24
 70
     0
102
RTVSPropertyOp25
 70
     0
102
RTVSPropertyOp26
 70
     0
102
RTVSPropertyOp27
 70
     0
102
RTVSPropertyOp28
 70
     0
102
RTVSPropertyOp29
 70
     0
102
RTVSPropertyOp30
 70
     0
102
RTVSPropertyOp31
 70
     0
102
RTVSPropertyOp32
 70
     0
102
RTVSPropertyOp33
 70
     0
102
RTVSPropertyOp34
 70
     0
102
RTVSPropertyOp35
 70
     0
102
RTVSPropertyOp36
 70
     0
102
RTVSPropertyOp37
 70
     0
102
RTVSPropertyOp38
 70
     0
102
RTVSPropertyOp39
 70
     0
102
RTVSPropertyOp40
 70
     0
102
RTVSPropertyOp41
 70
     0
102
RTVSPropertyOp42
 70
     0
102
RTVSPropertyOp43
 70
     0
102
RTVSPropertyOp44
 70
     0
102
RTVSPropertyOp45
 70
     0
102
RTVSPropertyOp46
 70
     0
102
RTVSPropertyOp47
 70
     0
102
RTVSPropertyOp48
 70
     0
102
RTVSPropertyOp49
 70
     0
102
RTVSPropertyOp50
 70
     0
102
RTVSPropertyOp51
 70
     0
102
RTVSPropertyOp52
 70
     0
102
RTVSPropertyOp53
 70
     0
102
RTVSPropertyOp54
 70
     0
102
RTVSPropertyOp55
 70
     0
102
RTVSPropertyOp56
 70
     0
102
RTVSPropertyOp57
 70
     0
102
RTVSPost2010Prop28
280
     0
102
RTVSPost2010PropOp28
 70
     0
102
RTVSPost2010Prop29
280
     1
102
RTVSPost2010PropOp29
 70
     0
102
RTVSPost2010Prop30
280
     1
102
RTVSPost2010PropOp30
 70
     0
102
RTVSPost2010Prop31
280
     0
102
RTVSPost2010PropOp31
 70
     0
102
RTVSPost2010Prop32
280
     0
102
RTVSPost2010PropOp32
 70
     0
102
RTVSPost2010Prop33
280
     0
102
RTVSPost2010PropOp33
 70
     0
102
RTVSPost2010Prop34
280
     0
102
RTVSPost2010PropOp34
 70
     0
102
RTVSPost2010Prop35
280
     0
102
RTVSPost2010PropOp35
 70
     0
102
RTVSPost2010Prop36
280
     0
102
RTVSPost2010PropOp36
 70
     0
102
RTVSPost2010Prop37
 90
       50
102
RTVSPost2010PropOp37
 70
     0
102
RTVSPost2010Prop38
140
0.0
102
RTVSPost2010PropOp38
 70
     0
102
RTVSPost2010Prop39
140
1.0
102
RTVSPost2010PropOp39
 70
     0
102
RTVSPost2010Prop40
 90
        0
102
RTVSPost2010PropOp40
 70
     0
102
RTVSPost2010Prop41ColorIndex
 90
       18
102
RTVSPost2010Prop41ColorRGB
 90
        0
102
RTVSPost2010PropOp41
 70
     0
102
RTVSPost2010Prop42
 90
       50
102
RTVSPost2010PropOp42
 70
     0
102
RTVSPost2010Prop43
 90
        3
102
RTVSPost2010PropOp43
 70
     0
102
RTVSPost2010Prop44ColorIndex
 90
        5
102
RTVSPost2010Prop44ColorRGB
 90
      255
102
RTVSPost2010PropOp44
 70
     0
102
RTVSPost2010Prop45
280
     0
102
RTVSPost2010PropOp45
 70
     0
102
RTVSPost2010Prop46
 90
       50
102
RTVSPost2010PropOp46
 70
     0
102
RTVSPost2010Prop47
 90
       50
102
RTVSPost2010PropOp47
 70
     0
102
RTVSPost2010Prop48
 90
       50
102
RTVSPost2010PropOp48
 70
     0
102
RTVSPost2010Prop49
280
     0
102
RTVSPost2010PropOp49
 70
     0
102
RTVSPost2010Prop50
 90
       50
102
RTVSPost2010PropOp50
 70
     0
102
RTVSPost2010Prop51ColorIndex
 90
      256
102
RTVSPost2010Prop51ColorRGB
 90
-16777216
102
RTVSPost2010PropOp51
 70
     0
102
RTVSPost2010Prop52
140
1.0
102
RTVSPost2010PropOp52
 70
     0
102
RTVSPost2010Prop53
 90
        2
102
RTVSPost2010PropOp53
 70
     0
102
RTVSPost2010Prop54
  1
strokes_ogs.tif
102
RTVSPost2010PropOp54
 70
     0
102
RTVSPost2010Prop55
280
     0
102
RTVSPost2010PropOp55
 70
     0
102
RTVSPost2010Prop56
140
1.0
102
RTVSPost2010PropOp56
 70
     0
102
RTVSPost2010Prop57
140
1.0
102
RTVSPost2010PropOp57
 70
     0
  0
XRECORD
  5
210
102
{ACAD_REACTORS
330
20F
102
}
330
20F
100
AcDbXrecord
280
     1
102
RTVSPropertyOp0
 70
     1
102
RTVSPropertyOp1
 70
     1
102
RTVSPropertyOp2
 70
     1
102
RTVSPropertyOp3
 70
     1
102
RTVSPropertyOp4
 70
     1
102
RTVSPropertyOp5
 70
     1
102
RTVSPropertyOp6
 70
     1
102
RTVSPropertyOp7
 70
     1
102
RTVSPropertyOp8
 70
     1
102
RTVSPropertyOp9
 70
     1
102
RTVSPropertyOp10
 70
     1
102
RTVSPropertyOp11
 70
     1
102
RTVSPropertyOp12
 70
     1
102
RTVSPropertyOp13
 70
     1
102
RTVSPropertyOp14
 70
     1
102
RTVSPropertyOp15
 70
     1
102
RTVSPropertyOp16
 70
     1
102
RTVSPropertyOp17
 70
     1
102
RTVSPropertyOp18
 70
     1
102
RTVSPropertyOp19
 70
     1
102
RTVSPropertyOp20
 70
     1
102
RTVSPropertyOp21
 70
     1
102
RTVSPropertyOp22
 70
     1
102
RTVSPropertyOp23
 70
     1
102
RTVSPropertyOp24
 70
     1
102
RTVSPropertyOp25
 70
     1
102
RTVSPropertyOp26
 70
     1
102
RTVSPropertyOp27
 70
     1
102
RTVSPropertyOp28
 70
     1
102
RTVSPropertyOp29
 70
     1
102
RTVSPropertyOp30
 70
     1
102
RTVSPropertyOp31
 70
     1
102
RTVSPropertyOp32
 70
     1
102
RTVSPropertyOp33
 70
     1
102
RTVSPropertyOp34
 70
     1
102
RTVSPropertyOp35
 70
     1
102
RTVSPropertyOp36
 70
     1
102
RTVSPropertyOp37
 70
     1
102
RTVSPropertyOp38
 70
     1
102
RTVSPropertyOp39
 70
     1
102
RTVSPropertyOp40
 70
     1
102
RTVSPropertyOp41
 70
     1
102
RTVSPropertyOp42
 70
     1
102
RTVSPropertyOp43
 70
     1
102
RTVSPropertyOp44
 70
     1
102
RTVSPropertyOp45
 70
     1
102
RTVSPropertyOp46
 70
     1
102
RTVSPropertyOp47
 70
     1
102
RTVSPropertyOp48
 70
     1
102
RTVSPropertyOp49
 70
     1
102
RTVSPropertyOp50
 70
     1
102
RTVSPropertyOp51
 70
     0
102
RTVSPropertyOp52
 70
     0
102
RTVSPropertyOp53
 70
     1
102
RTVSPropertyOp54
 70
     1
102
RTVSPropertyOp55
 70
     1
102
RTVSPropertyOp56
 70
     1
102
RTVSPropertyOp57
 70
     1
102
RTVSPost2010Prop28
280
     0
102
RTVSPost2010PropOp28
 70
     1
102
RTVSPost2010Prop29
280
     1
102
RTVSPost2010PropOp29
 70
     1
102
RTVSPost2010Prop30
280
     1
102
RTVSPost2010PropOp30
 70
     1
102
RTVSPost2010Prop31
280
     0
102
RTVSPost2010PropOp31
 70
     1
102
RTVSPost2010Prop32
280
     0
102
RTVSPost2010PropOp32
 70
     1
102
RTVSPost2010Prop33
280
     0
102
RTVSPost2010PropOp33
 70
     1
102
RTVSPost2010Prop34
280
     0
102
RTVSPost2010PropOp34
 70
     1
102
RTVSPost2010Prop35
280
     0
102
RTVSPost2010PropOp35
 70
     1
102
RTVSPost2010Prop36
280
     0
102
RTVSPost2010PropOp36
 70
     1
102
RTVSPost2010Prop37
 90
       50
102
RTVSPost2010PropOp37
 70
     1
102
RTVSPost2010Prop38
140
0.0
102
RTVSPost2010PropOp38
 70
     1
102
RTVSPost2010Prop39
140
1.0
102
RTVSPost2010PropOp39
 70
     1
102
RTVSPost2010Prop40
 90
        0
102
RTVSPost2010PropOp40
 70
     1
102
RTVSPost2010Prop41ColorIndex
 90
       18
102
RTVSPost2010Prop41ColorRGB
 90
        0
102
RTVSPost2010PropOp41
 70
     1
102
RTVSPost2010Prop42
 90
       50
102
RTVSPost2010PropOp42
 70
     1
102
RTVSPost2010Prop43
 90
        3
102
RTVSPost2010PropOp43
 70
     1
102
RTVSPost2010Prop44ColorIndex
 90
        5
102
RTVSPost2010Prop44ColorRGB
 90
      255
102
RTVSPost2010PropOp44
 70
     1
102
RTVSPost2010Prop45
280
     0
102
RTVSPost2010PropOp45
 70
     1
102
RTVSPost2010Prop46
 90
       50
102
RTVSPost2010PropOp46
 70
     1
102
RTVSPost2010Prop47
 90
       50
102
RTVSPost2010PropOp47
 70
     1
102
RTVSPost2010Prop48
 90
       50
102
RTVSPost2010PropOp48
 70
     1
102
RTVSPost2010Prop49
280
     0
102
RTVSPost2010PropOp49
 70
     1
102
RTVSPost2010Prop50
 90
       50
102
RTVSPost2010PropOp50
 70
     1
102
RTVSPost2010Prop51ColorIndex
 90
      256
102
RTVSPost2010Prop51ColorRGB
 90
-16777216
102
RTVSPost2010PropOp51
 70
     0
102
RTVSPost2010Prop52
140
1.0
102
RTVSPost2010PropOp52
 70
     0
102
RTVSPost2010Prop53
 90
        2
102
RTVSPost2010PropOp53
 70
     1
102
RTVSPost2010Prop54
  1
strokes_ogs.tif
102
RTVSPost2010PropOp54
 70
     1
102
RTVSPost2010Prop55
280
     0
102
RTVSPost2010PropOp55
 70
     1
102
RTVSPost2010Prop56
140
1.0
102
RTVSPost2010PropOp56
 70
     1
102
RTVSPost2010Prop57
140
1.0
102
RTVSPost2010PropOp57
 70
     1
  0
XRECORD
  5
218
102
{ACAD_REACTORS
330
217
102
}
330
217
100
AcDbXrecord
280
     1
102
RTVSPropertyOp0
 70
     0
102
RTVSPropertyOp1
 70
     0
102
RTVSPropertyOp2
 70
     0
102
RTVSPropertyOp3
 70
     0
102
RTVSPropertyOp4
 70
     0
102
RTVSPropertyOp5
 70
     0
102
RTVSPropertyOp6
 70
     0
102
RTVSPropertyOp7
 70
     0
102
RTVSPropertyOp8
 70
     0
102
RTVSPropertyOp9
 70
     0
102
RTVSPropertyOp10
 70
     0
102
RTVSPropertyOp11
 70
     0
102
RTVSPropertyOp12
 70
     0
102
RTVSPropertyOp13
 70
     0
102
RTVSPropertyOp14
 70
     2
102
RTVSPropertyOp15
 70
     0
102
RTVSPropertyOp16
 70
     0
102
RTVSPropertyOp17
 70
     0
102
RTVSPropertyOp18
 70
     0
102
RTVSPropertyOp19
 70
     0
102
RTVSPropertyOp20
 70
     0
102
RTVSPropertyOp21
 70
     0
102
RTVSPropertyOp22
 70
     0
102
RTVSPropertyOp23
 70
     0
102
RTVSPropertyOp24
 70
     0
102
RTVSPropertyOp25
 70
     0
102
RTVSPropertyOp26
 70
     0
102
RTVSPropertyOp27
 70
     0
102
RTVSPropertyOp28
 70
     0
102
RTVSPropertyOp29
 70
     0
102
RTVSPropertyOp30
 70
     0
102
RTVSPropertyOp31
 70
     0
102
RTVSPropertyOp32
 70
     0
102
RTVSPropertyOp33
 70
     0
102
RTVSPropertyOp34
 70
     0
102
RTVSPropertyOp35
 70
     0
102
RTVSPropertyOp36
 70
     0
102
RTVSPropertyOp37
 70
     0
102
RTVSPropertyOp38
 70
     0
102
RTVSPropertyOp39
 70
     0
102
RTVSPropertyOp40
 70
     0
102
RTVSPropertyOp41
 70
     0
102
RTVSPropertyOp42
 70
     0
102
RTVSPropertyOp43
 70
     0
102
RTVSPropertyOp44
 70
     0
102
RTVSPropertyOp45
 70
     0
102
RTVSPropertyOp46
 70
     0
102
RTVSPropertyOp47
 70
     0
102
RTVSPropertyOp48
 70
     0
102
RTVSPropertyOp49
 70
     0
102
RTVSPropertyOp50
 70
     0
102
RTVSPropertyOp51
 70
     0
102
RTVSPropertyOp52
 70
     0
102
RTVSPropertyOp53
 70
     0
102
RTVSPropertyOp54
 70
     0
102
RTVSPropertyOp55
 70
     0
102
RTVSPropertyOp56
 70
     0
102
RTVSPropertyOp57
 70
     0
102
RTVSPost2010Prop28
280
     0
102
RTVSPost2010PropOp28
 70
     0
102
RTVSPost2010Prop29
280
     1
102
RTVSPost2010PropOp29
 70
     0
102
RTVSPost2010Prop30
280
     1
102
RTVSPost2010PropOp30
 70
     0
102
RTVSPost2010Prop31
280
     0
102
RTVSPost2010PropOp31
 70
     0
102
RTVSPost2010Prop32
280
     0
102
RTVSPost2010PropOp32
 70
     0
102
RTVSPost2010Prop33
280
     0
102
RTVSPost2010PropOp33
 70
     0
102
RTVSPost2010Prop34
280
     0
102
RTVSPost2010PropOp34
 70
     0
102
RTVSPost2010Prop35
280
     0
102
RTVSPost2010PropOp35
 70
     0
102
RTVSPost2010Prop36
280
     0
102
RTVSPost2010PropOp36
 70
     0
102
RTVSPost2010Prop37
 90
       50
102
RTVSPost2010PropOp37
 70
     0
102
RTVSPost2010Prop38
140
0.0
102
RTVSPost2010PropOp38
 70
     0
102
RTVSPost2010Prop39
140
1.0
102
RTVSPost2010PropOp39
 70
     0
102
RTVSPost2010Prop40
 90
        0
102
RTVSPost2010PropOp40
 70
     0
102
RTVSPost2010Prop41ColorIndex
 90
       18
102
RTVSPost2010Prop41ColorRGB
 90
        0
102
RTVSPost2010PropOp41
 70
     0
102
RTVSPost2010Prop42
 90
       50
102
RTVSPost2010PropOp42
 70
     0
102
RTVSPost2010Prop43
 90
        3
102
RTVSPost2010PropOp43
 70
     0
102
RTVSPost2010Prop44ColorIndex
 90
        5
102
RTVSPost2010Prop44ColorRGB
 90
      255
102
RTVSPost2010PropOp44
 70
     0
102
RTVSPost2010Prop45
280
     0
102
RTVSPost2010PropOp45
 70
     0
102
RTVSPost2010Prop46
 90
       50
102
RTVSPost2010PropOp46
 70
     0
102
RTVSPost2010Prop47
 90
       50
102
RTVSPost2010PropOp47
 70
     0
102
RTVSPost2010Prop48
 90
       50
102
RTVSPost2010PropOp48
 70
     0
102
RTVSPost2010Prop49
280
     0
102
RTVSPost2010PropOp49
 70
     0
102
RTVSPost2010Prop50
 90
       50
102
RTVSPost2010PropOp50
 70
     0
102
RTVSPost2010Prop51ColorIndex
 90
      256
102
RTVSPost2010Prop51ColorRGB
 90
-16777216
102
RTVSPost2010PropOp51
 70
     0
102
RTVSPost2010Prop52
140
1.0
102
RTVSPost2010PropOp52
 70
     0
102
RTVSPost2010Prop53
 90
        2
102
RTVSPost2010PropOp53
 70
     0
102
RTVSPost2010Prop54
  1
strokes_ogs.tif
102
RTVSPost2010PropOp54
 70
     0
102
RTVSPost2010Prop55
280
     0
102
RTVSPost2010PropOp55
 70
     0
102
RTVSPost2010Prop56
140
1.0
102
RTVSPost2010PropOp56
 70
     0
102
RTVSPost2010Prop57
140
1.0
102
RTVSPost2010PropOp57
 70
     0
  0
XRECORD
  5
206
102
{ACAD_REACTORS
330
205
102
}
330
205
100
AcDbXrecord
280
     1
102
RTVSPropertyOp0
 70
     1
102
RTVSPropertyOp1
 70
     1
102
RTVSPropertyOp2
 70
     1
102
RTVSPropertyOp3
 70
     1
102
RTVSPropertyOp4
 70
     1
102
RTVSPropertyOp5
 70
     1
102
RTVSPropertyOp6
 70
     1
102
RTVSPropertyOp7
 70
     1
102
RTVSPropertyOp8
 70
     1
102
RTVSPropertyOp9
 70
     1
102
RTVSPropertyOp10
 70
     1
102
RTVSPropertyOp11
 70
     1
102
RTVSPropertyOp12
 70
     1
102
RTVSPropertyOp13
 70
     1
102
RTVSPropertyOp14
 70
     1
102
RTVSPropertyOp15
 70
     1
102
RTVSPropertyOp16
 70
     1
102
RTVSPropertyOp17
 70
     1
102
RTVSPropertyOp18
 70
     1
102
RTVSPropertyOp19
 70
     1
102
RTVSPropertyOp20
 70
     1
102
RTVSPropertyOp21
 70
     1
102
RTVSPropertyOp22
 70
     1
102
RTVSPropertyOp23
 70
     1
102
RTVSPropertyOp24
 70
     1
102
RTVSPropertyOp25
 70
     1
102
RTVSPropertyOp26
 70
     1
102
RTVSPropertyOp27
 70
     1
102
RTVSPropertyOp28
 70
     1
102
RTVSPropertyOp29
 70
     1
102
RTVSPropertyOp30
 70
     1
102
RTVSPropertyOp31
 70
     1
102
RTVSPropertyOp32
 70
     1
102
RTVSPropertyOp33
 70
     1
102
RTVSPropertyOp34
 70
     1
102
RTVSPropertyOp35
 70
     1
102
RTVSPropertyOp36
 70
     1
102
RTVSPropertyOp37
 70
     1
102
RTVSPropertyOp38
 70
     1
102
RTVSPropertyOp39
 70
     1
102
RTVSPropertyOp40
 70
     1
102
RTVSPropertyOp41
 70
     1
102
RTVSPropertyOp42
 70
     1
102
RTVSPropertyOp43
 70
     1
102
RTVSPropertyOp44
 70
     1
102
RTVSPropertyOp45
 70
     1
102
RTVSPropertyOp46
 70
     1
102
RTVSPropertyOp47
 70
     1
102
RTVSPropertyOp48
 70
     1
102
RTVSPropertyOp49
 70
     1
102
RTVSPropertyOp50
 70
     1
102
RTVSPropertyOp51
 70
     0
102
RTVSPropertyOp52
 70
     0
102
RTVSPropertyOp53
 70
     1
102
RTVSPropertyOp54
 70
     1
102
RTVSPropertyOp55
 70
     1
102
RTVSPropertyOp56
 70
     1
102
RTVSPropertyOp57
 70
     1
102
RTVSPost2010Prop28
280
     0
102
RTVSPost2010PropOp28
 70
     1
102
RTVSPost2010Prop29
280
     1
102
RTVSPost2010PropOp29
 70
     1
102
RTVSPost2010Prop30
280
     1
102
RTVSPost2010PropOp30
 70
     1
102
RTVSPost2010Prop31
280
     0
102
RTVSPost2010PropOp31
 70
     1
102
RTVSPost2010Prop32
280
     0
102
RTVSPost2010PropOp32
 70
     1
102
RTVSPost2010Prop33
280
     0
102
RTVSPost2010PropOp33
 70
     1
102
RTVSPost2010Prop34
280
     0
102
RTVSPost2010PropOp34
 70
     1
102
RTVSPost2010Prop35
280
     0
102
RTVSPost2010PropOp35
 70
     1
102
RTVSPost2010Prop36
280
     0
102
RTVSPost2010PropOp36
 70
     1
102
RTVSPost2010Prop37
 90
       50
102
RTVSPost2010PropOp37
 70
     1
102
RTVSPost2010Prop38
140
0.0
102
RTVSPost2010PropOp38
 70
     1
102
RTVSPost2010Prop39
140
1.0
102
RTVSPost2010PropOp39
 70
     1
102
RTVSPost2010Prop40
 90
        0
102
RTVSPost2010PropOp40
 70
     1
102
RTVSPost2010Prop41ColorIndex
 90
       18
102
RTVSPost2010Prop41ColorRGB
 90
        0
102
RTVSPost2010PropOp41
 70
     1
102
RTVSPost2010Prop42
 90
       50
102
RTVSPost2010PropOp42
 70
     1
102
RTVSPost2010Prop43
 90
        3
102
RTVSPost2010PropOp43
 70
     1
102
RTVSPost2010Prop44ColorIndex
 90
        5
102
RTVSPost2010Prop44ColorRGB
 90
      255
102
RTVSPost2010PropOp44
 70
     1
102
RTVSPost2010Prop45
280
     0
102
RTVSPost2010PropOp45
 70
     1
102
RTVSPost2010Prop46
 90
       50
102
RTVSPost2010PropOp46
 70
     1
102
RTVSPost2010Prop47
 90
       50
102
RTVSPost2010PropOp47
 70
     1
102
RTVSPost2010Prop48
 90
       50
102
RTVSPost2010PropOp48
 70
     1
102
RTVSPost2010Prop49
280
     0
102
RTVSPost2010PropOp49
 70
     1
102
RTVSPost2010Prop50
 90
       50
102
RTVSPost2010PropOp50
 70
     1
102
RTVSPost2010Prop51ColorIndex
 90
      256
102
RTVSPost2010Prop51ColorRGB
 90
-16777216
102
RTVSPost2010PropOp51
 70
     0
102
RTVSPost2010Prop52
140
1.0
102
RTVSPost2010PropOp52
 70
     0
102
RTVSPost2010Prop53
 90
        2
102
RTVSPost2010PropOp53
 70
     1
102
RTVSPost2010Prop54
  1
strokes_ogs.tif
102
RTVSPost2010PropOp54
 70
     1
102
RTVSPost2010Prop55
280
     0
102
RTVSPost2010PropOp55
 70
     1
102
RTVSPost2010Prop56
140
1.0
102
RTVSPost2010PropOp56
 70
     1
102
RTVSPost2010Prop57
140
1.0
102
RTVSPost2010PropOp57
 70
     1
  0
XRECORD
  5
224
102
{ACAD_REACTORS
330
223
102
}
330
223
100
AcDbXrecord
280
     1
102
RTVSPropertyOp0
 70
     1
102
RTVSPropertyOp1
 70
     1
102
RTVSPropertyOp2
 70
     1
102
RTVSPropertyOp3
 70
     1
102
RTVSPropertyOp4
 70
     1
102
RTVSPropertyOp5
 70
     1
102
RTVSPropertyOp6
 70
     1
102
RTVSPropertyOp7
 70
     1
102
RTVSPropertyOp8
 70
     1
102
RTVSPropertyOp9
 70
     1
102
RTVSPropertyOp10
 70
     1
102
RTVSPropertyOp11
 70
     1
102
RTVSPropertyOp12
 70
     1
102
RTVSPropertyOp13
 70
     1
102
RTVSPropertyOp14
 70
     1
102
RTVSPropertyOp15
 70
     1
102
RTVSPropertyOp16
 70
     1
102
RTVSPropertyOp17
 70
     1
102
RTVSPropertyOp18
 70
     1
102
RTVSPropertyOp19
 70
     1
102
RTVSPropertyOp20
 70
     1
102
RTVSPropertyOp21
 70
     1
102
RTVSPropertyOp22
 70
     1
102
RTVSPropertyOp23
 70
     1
102
RTVSPropertyOp24
 70
     1
102
RTVSPropertyOp25
 70
     1
102
RTVSPropertyOp26
 70
     1
102
RTVSPropertyOp27
 70
     1
102
RTVSPropertyOp28
 70
     1
102
RTVSPropertyOp29
 70
     1
102
RTVSPropertyOp30
 70
     1
102
RTVSPropertyOp31
 70
     1
102
RTVSPropertyOp32
 70
     1
102
RTVSPropertyOp33
 70
     1
102
RTVSPropertyOp34
 70
     1
102
RTVSPropertyOp35
 70
     1
102
RTVSPropertyOp36
 70
     1
102
RTVSPropertyOp37
 70
     1
102
RTVSPropertyOp38
 70
     1
102
RTVSPropertyOp39
 70
     1
102
RTVSPropertyOp40
 70
     1
102
RTVSPropertyOp41
 70
     1
102
RTVSPropertyOp42
 70
     1
102
RTVSPropertyOp43
 70
     1
102
RTVSPropertyOp44
 70
     1
102
RTVSPropertyOp45
 70
     1
102
RTVSPropertyOp46
 70
     1
102
RTVSPropertyOp47
 70
     1
102
RTVSPropertyOp48
 70
     1
102
RTVSPropertyOp49
 70
     1
102
RTVSPropertyOp50
 70
     1
102
RTVSPropertyOp51
 70
     0
102
RTVSPropertyOp52
 70
     0
102
RTVSPropertyOp53
 70
     1
102
RTVSPropertyOp54
 70
     1
102
RTVSPropertyOp55
 70
     1
102
RTVSPropertyOp56
 70
     1
102
RTVSPropertyOp57
 70
     1
102
RTVSPost2010Prop28
280
     0
102
RTVSPost2010PropOp28
 70
     1
102
RTVSPost2010Prop29
280
     1
102
RTVSPost2010PropOp29
 70
     1
102
RTVSPost2010Prop30
280
     1
102
RTVSPost2010PropOp30
 70
     1
102
RTVSPost2010Prop31
280
     0
102
RTVSPost2010PropOp31
 70
     1
102
RTVSPost2010Prop32
280
     0
102
RTVSPost2010PropOp32
 70
     1
102
RTVSPost2010Prop33
280
     0
102
RTVSPost2010PropOp33
 70
     1
102
RTVSPost2010Prop34
280
     0
102
RTVSPost2010PropOp34
 70
     1
102
RTVSPost2010Prop35
280
     0
102
RTVSPost2010PropOp35
 70
     1
102
RTVSPost2010Prop36
280
     0
102
RTVSPost2010PropOp36
 70
     1
102
RTVSPost2010Prop37
 90
       50
102
RTVSPost2010PropOp37
 70
     1
102
RTVSPost2010Prop38
140
0.0
102
RTVSPost2010PropOp38
 70
     1
102
RTVSPost2010Prop39
140
1.0
102
RTVSPost2010PropOp39
 70
     1
102
RTVSPost2010Prop40
 90
        0
102
RTVSPost2010PropOp40
 70
     1
102
RTVSPost2010Prop41ColorIndex
 90
       18
102
RTVSPost2010Prop41ColorRGB
 90
        0
102
RTVSPost2010PropOp41
 70
     1
102
RTVSPost2010Prop42
 90
       50
102
RTVSPost2010PropOp42
 70
     1
102
RTVSPost2010Prop43
 90
        3
102
RTVSPost2010PropOp43
 70
     1
102
RTVSPost2010Prop44ColorIndex
 90
        5
102
RTVSPost2010Prop44ColorRGB
 90
      255
102
RTVSPost2010PropOp44
 70
     1
102
RTVSPost2010Prop45
280
     0
102
RTVSPost2010PropOp45
 70
     1
102
RTVSPost2010Prop46
 90
       50
102
RTVSPost2010PropOp46
 70
     1
102
RTVSPost2010Prop47
 90
       50
102
RTVSPost2010PropOp47
 70
     1
102
RTVSPost2010Prop48
 90
       50
102
RTVSPost2010PropOp48
 70
     1
102
RTVSPost2010Prop49
280
     0
102
RTVSPost2010PropOp49
 70
     1
102
RTVSPost2010Prop50
 90
       50
102
RTVSPost2010PropOp50
 70
     1
102
RTVSPost2010Prop51ColorIndex
 90
      256
102
RTVSPost2010Prop51ColorRGB
 90
-16777216
102
RTVSPost2010PropOp51
 70
     0
102
RTVSPost2010Prop52
140
1.0
102
RTVSPost2010PropOp52
 70
     0
102
RTVSPost2010Prop53
 90
        2
102
RTVSPost2010PropOp53
 70
     1
102
RTVSPost2010Prop54
  1
strokes_ogs.tif
102
RTVSPost2010PropOp54
 70
     1
102
RTVSPost2010Prop55
280
     0
102
RTVSPost2010PropOp55
 70
     1
102
RTVSPost2010Prop56
140
1.0
102
RTVSPost2010PropOp56
 70
     1
102
RTVSPost2010Prop57
140
1.0
102
RTVSPost2010PropOp57
 70
     1
  0
XRECORD
  5
222
102
{ACAD_REACTORS
330
221
102
}
330
221
100
AcDbXrecord
280
     1
102
RTVSPropertyOp0
 70
     1
102
RTVSPropertyOp1
 70
     1
102
RTVSPropertyOp2
 70
     1
102
RTVSPropertyOp3
 70
     1
102
RTVSPropertyOp4
 70
     1
102
RTVSPropertyOp5
 70
     1
102
RTVSPropertyOp6
 70
     1
102
RTVSPropertyOp7
 70
     1
102
RTVSPropertyOp8
 70
     1
102
RTVSPropertyOp9
 70
     1
102
RTVSPropertyOp10
 70
     1
102
RTVSPropertyOp11
 70
     1
102
RTVSPropertyOp12
 70
     1
102
RTVSPropertyOp13
 70
     1
102
RTVSPropertyOp14
 70
     1
102
RTVSPropertyOp15
 70
     1
102
RTVSPropertyOp16
 70
     1
102
RTVSPropertyOp17
 70
     1
102
RTVSPropertyOp18
 70
     1
102
RTVSPropertyOp19
 70
     1
102
RTVSPropertyOp20
 70
     1
102
RTVSPropertyOp21
 70
     1
102
RTVSPropertyOp22
 70
     1
102
RTVSPropertyOp23
 70
     1
102
RTVSPropertyOp24
 70
     1
102
RTVSPropertyOp25
 70
     1
102
RTVSPropertyOp26
 70
     1
102
RTVSPropertyOp27
 70
     1
102
RTVSPropertyOp28
 70
     1
102
RTVSPropertyOp29
 70
     1
102
RTVSPropertyOp30
 70
     1
102
RTVSPropertyOp31
 70
     1
102
RTVSPropertyOp32
 70
     1
102
RTVSPropertyOp33
 70
     1
102
RTVSPropertyOp34
 70
     1
102
RTVSPropertyOp35
 70
     1
102
RTVSPropertyOp36
 70
     1
102
RTVSPropertyOp37
 70
     1
102
RTVSPropertyOp38
 70
     1
102
RTVSPropertyOp39
 70
     1
102
RTVSPropertyOp40
 70
     1
102
RTVSPropertyOp41
 70
     1
102
RTVSPropertyOp42
 70
     1
102
RTVSPropertyOp43
 70
     1
102
RTVSPropertyOp44
 70
     1
102
RTVSPropertyOp45
 70
     1
102
RTVSPropertyOp46
 70
     1
102
RTVSPropertyOp47
 70
     1
102
RTVSPropertyOp48
 70
     1
102
RTVSPropertyOp49
 70
     1
102
RTVSPropertyOp50
 70
     1
102
RTVSPropertyOp51
 70
     0
102
RTVSPropertyOp52
 70
     0
102
RTVSPropertyOp53
 70
     1
102
RTVSPropertyOp54
 70
     1
102
RTVSPropertyOp55
 70
     1
102
RTVSPropertyOp56
 70
     1
102
RTVSPropertyOp57
 70
     1
102
RTVSPost2010Prop28
280
     0
102
RTVSPost2010PropOp28
 70
     1
102
RTVSPost2010Prop29
280
     1
102
RTVSPost2010PropOp29
 70
     1
102
RTVSPost2010Prop30
280
     1
102
RTVSPost2010PropOp30
 70
     1
102
RTVSPost2010Prop31
280
     0
102
RTVSPost2010PropOp31
 70
     1
102
RTVSPost2010Prop32
280
     0
102
RTVSPost2010PropOp32
 70
     1
102
RTVSPost2010Prop33
280
     0
102
RTVSPost2010PropOp33
 70
     1
102
RTVSPost2010Prop34
280
     0
102
RTVSPost2010PropOp34
 70
     1
102
RTVSPost2010Prop35
280
     0
102
RTVSPost2010PropOp35
 70
     1
102
RTVSPost2010Prop36
280
     0
102
RTVSPost2010PropOp36
 70
     1
102
RTVSPost2010Prop37
 90
       50
102
RTVSPost2010PropOp37
 70
     1
102
RTVSPost2010Prop38
140
0.0
102
RTVSPost2010PropOp38
 70
     1
102
RTVSPost2010Prop39
140
1.0
102
RTVSPost2010PropOp39
 70
     1
102
RTVSPost2010Prop40
 90
        0
102
RTVSPost2010PropOp40
 70
     1
102
RTVSPost2010Prop41ColorIndex
 90
       18
102
RTVSPost2010Prop41ColorRGB
 90
        0
102
RTVSPost2010PropOp41
 70
     1
102
RTVSPost2010Prop42
 90
       50
102
RTVSPost2010PropOp42
 70
     1
102
RTVSPost2010Prop43
 90
        3
102
RTVSPost2010PropOp43
 70
     1
102
RTVSPost2010Prop44ColorIndex
 90
        5
102
RTVSPost2010Prop44ColorRGB
 90
      255
102
RTVSPost2010PropOp44
 70
     1
102
RTVSPost2010Prop45
280
     0
102
RTVSPost2010PropOp45
 70
     1
102
RTVSPost2010Prop46
 90
       50
102
RTVSPost2010PropOp46
 70
     1
102
RTVSPost2010Prop47
 90
       50
102
RTVSPost2010PropOp47
 70
     1
102
RTVSPost2010Prop48
 90
       50
102
RTVSPost2010PropOp48
 70
     1
102
RTVSPost2010Prop49
280
     0
102
RTVSPost2010PropOp49
 70
     1
102
RTVSPost2010Prop50
 90
       50
102
RTVSPost2010PropOp50
 70
     1
102
RTVSPost2010Prop51ColorIndex
 90
      256
102
RTVSPost2010Prop51ColorRGB
 90
-16777216
102
RTVSPost2010PropOp51
 70
     0
102
RTVSPost2010Prop52
140
1.0
102
RTVSPost2010PropOp52
 70
     0
102
RTVSPost2010Prop53
 90
        2
102
RTVSPost2010PropOp53
 70
     1
102
RTVSPost2010Prop54
  1
strokes_ogs.tif
102
RTVSPost2010PropOp54
 70
     1
102
RTVSPost2010Prop55
280
     0
102
RTVSPost2010PropOp55
 70
     1
102
RTVSPost2010Prop56
140
1.0
102
RTVSPost2010PropOp56
 70
     1
102
RTVSPost2010Prop57
140
1.0
102
RTVSPost2010PropOp57
 70
     1
  0
XRECORD
  5
21C
102
{ACAD_REACTORS
330
21B
102
}
330
21B
100
AcDbXrecord
280
     1
102
RTVSPropertyOp0
 70
     1
102
RTVSPropertyOp1
 70
     1
102
RTVSPropertyOp2
 70
     1
102
RTVSPropertyOp3
 70
     1
102
RTVSPropertyOp4
 70
     1
102
RTVSPropertyOp5
 70
     1
102
RTVSPropertyOp6
 70
     1
102
RTVSPropertyOp7
 70
     1
102
RTVSPropertyOp8
 70
     1
102
RTVSPropertyOp9
 70
     1
102
RTVSPropertyOp10
 70
     1
102
RTVSPropertyOp11
 70
     1
102
RTVSPropertyOp12
 70
     1
102
RTVSPropertyOp13
 70
     1
102
RTVSPropertyOp14
 70
     1
102
RTVSPropertyOp15
 70
     1
102
RTVSPropertyOp16
 70
     1
102
RTVSPropertyOp17
 70
     1
102
RTVSPropertyOp18
 70
     1
102
RTVSPropertyOp19
 70
     1
102
RTVSPropertyOp20
 70
     1
102
RTVSPropertyOp21
 70
     1
102
RTVSPropertyOp22
 70
     1
102
RTVSPropertyOp23
 70
     1
102
RTVSPropertyOp24
 70
     1
102
RTVSPropertyOp25
 70
     1
102
RTVSPropertyOp26
 70
     1
102
RTVSPropertyOp27
 70
     1
102
RTVSPropertyOp28
 70
     1
102
RTVSPropertyOp29
 70
     1
102
RTVSPropertyOp30
 70
     1
102
RTVSPropertyOp31
 70
     1
102
RTVSPropertyOp32
 70
     1
102
RTVSPropertyOp33
 70
     1
102
RTVSPropertyOp34
 70
     1
102
RTVSPropertyOp35
 70
     1
102
RTVSPropertyOp36
 70
     1
102
RTVSPropertyOp37
 70
     1
102
RTVSPropertyOp38
 70
     1
102
RTVSPropertyOp39
 70
     1
102
RTVSPropertyOp40
 70
     1
102
RTVSPropertyOp41
 70
     1
102
RTVSPropertyOp42
 70
     1
102
RTVSPropertyOp43
 70
     1
102
RTVSPropertyOp44
 70
     1
102
RTVSPropertyOp45
 70
     1
102
RTVSPropertyOp46
 70
     1
102
RTVSPropertyOp47
 70
     1
102
RTVSPropertyOp48
 70
     1
102
RTVSPropertyOp49
 70
     1
102
RTVSPropertyOp50
 70
     1
102
RTVSPropertyOp51
 70
     0
102
RTVSPropertyOp52
 70
     0
102
RTVSPropertyOp53
 70
     1
102
RTVSPropertyOp54
 70
     1
102
RTVSPropertyOp55
 70
     1
102
RTVSPropertyOp56
 70
     1
102
RTVSPropertyOp57
 70
     1
102
RTVSPost2010Prop28
280
     0
102
RTVSPost2010PropOp28
 70
     1
102
RTVSPost2010Prop29
280
     1
102
RTVSPost2010PropOp29
 70
     1
102
RTVSPost2010Prop30
280
     1
102
RTVSPost2010PropOp30
 70
     1
102
RTVSPost2010Prop31
280
     0
102
RTVSPost2010PropOp31
 70
     1
102
RTVSPost2010Prop32
280
     0
102
RTVSPost2010PropOp32
 70
     1
102
RTVSPost2010Prop33
280
     0
102
RTVSPost2010PropOp33
 70
     1
102
RTVSPost2010Prop34
280
     0
102
RTVSPost2010PropOp34
 70
     1
102
RTVSPost2010Prop35
280
     0
102
RTVSPost2010PropOp35
 70
     1
102
RTVSPost2010Prop36
280
     0
102
RTVSPost2010PropOp36
 70
     1
102
RTVSPost2010Prop37
 90
       50
102
RTVSPost2010PropOp37
 70
     1
102
RTVSPost2010Prop38
140
0.0
102
RTVSPost2010PropOp38
 70
     1
102
RTVSPost2010Prop39
140
1.0
102
RTVSPost2010PropOp39
 70
     1
102
RTVSPost2010Prop40
 90
        0
102
RTVSPost2010PropOp40
 70
     1
102
RTVSPost2010Prop41ColorIndex
 90
       18
102
RTVSPost2010Prop41ColorRGB
 90
        0
102
RTVSPost2010PropOp41
 70
     1
102
RTVSPost2010Prop42
 90
       50
102
RTVSPost2010PropOp42
 70
     1
102
RTVSPost2010Prop43
 90
        3
102
RTVSPost2010PropOp43
 70
     1
102
RTVSPost2010Prop44ColorIndex
 90
        5
102
RTVSPost2010Prop44ColorRGB
 90
      255
102
RTVSPost2010PropOp44
 70
     1
102
RTVSPost2010Prop45
280
     0
102
RTVSPost2010PropOp45
 70
     1
102
RTVSPost2010Prop46
 90
       50
102
RTVSPost2010PropOp46
 70
     1
102
RTVSPost2010Prop47
 90
       50
102
RTVSPost2010PropOp47
 70
     1
102
RTVSPost2010Prop48
 90
       50
102
RTVSPost2010PropOp48
 70
     1
102
RTVSPost2010Prop49
280
     0
102
RTVSPost2010PropOp49
 70
     1
102
RTVSPost2010Prop50
 90
       50
102
RTVSPost2010PropOp50
 70
     1
102
RTVSPost2010Prop51ColorIndex
 90
      256
102
RTVSPost2010Prop51ColorRGB
 90
-16777216
102
RTVSPost2010PropOp51
 70
     0
102
RTVSPost2010Prop52
140
1.0
102
RTVSPost2010PropOp52
 70
     0
102
RTVSPost2010Prop53
 90
        2
102
RTVSPost2010PropOp53
 70
     1
102
RTVSPost2010Prop54
  1
strokes_ogs.tif
102
RTVSPost2010PropOp54
 70
     1
102
RTVSPost2010Prop55
280
     0
102
RTVSPost2010PropOp55
 70
     1
102
RTVSPost2010Prop56
140
1.0
102
RTVSPost2010PropOp56
 70
     1
102
RTVSPost2010Prop57
140
1.0
102
RTVSPost2010PropOp57
 70
     1
  0
XRECORD
  5
21E
102
{ACAD_REACTORS
330
21D
102
}
330
21D
100
AcDbXrecord
280
     1
102
RTVSPropertyOp0
 70
     1
102
RTVSPropertyOp1
 70
     1
102
RTVSPropertyOp2
 70
     1
102
RTVSPropertyOp3
 70
     1
102
RTVSPropertyOp4
 70
     1
102
RTVSPropertyOp5
 70
     1
102
RTVSPropertyOp6
 70
     1
102
RTVSPropertyOp7
 70
     1
102
RTVSPropertyOp8
 70
     1
102
RTVSPropertyOp9
 70
     1
102
RTVSPropertyOp10
 70
     1
102
RTVSPropertyOp11
 70
     1
102
RTVSPropertyOp12
 70
     1
102
RTVSPropertyOp13
 70
     1
102
RTVSPropertyOp14
 70
     1
102
RTVSPropertyOp15
 70
     1
102
RTVSPropertyOp16
 70
     1
102
RTVSPropertyOp17
 70
     1
102
RTVSPropertyOp18
 70
     1
102
RTVSPropertyOp19
 70
     1
102
RTVSPropertyOp20
 70
     1
102
RTVSPropertyOp21
 70
     1
102
RTVSPropertyOp22
 70
     1
102
RTVSPropertyOp23
 70
     1
102
RTVSPropertyOp24
 70
     1
102
RTVSPropertyOp25
 70
     1
102
RTVSPropertyOp26
 70
     1
102
RTVSPropertyOp27
 70
     1
102
RTVSPropertyOp28
 70
     1
102
RTVSPropertyOp29
 70
     1
102
RTVSPropertyOp30
 70
     1
102
RTVSPropertyOp31
 70
     1
102
RTVSPropertyOp32
 70
     1
102
RTVSPropertyOp33
 70
     1
102
RTVSPropertyOp34
 70
     1
102
RTVSPropertyOp35
 70
     1
102
RTVSPropertyOp36
 70
     1
102
RTVSPropertyOp37
 70
     1
102
RTVSPropertyOp38
 70
     1
102
RTVSPropertyOp39
 70
     1
102
RTVSPropertyOp40
 70
     1
102
RTVSPropertyOp41
 70
     1
102
RTVSPropertyOp42
 70
     1
102
RTVSPropertyOp43
 70
     1
102
RTVSPropertyOp44
 70
     1
102
RTVSPropertyOp45
 70
     1
102
RTVSPropertyOp46
 70
     1
102
RTVSPropertyOp47
 70
     1
102
RTVSPropertyOp48
 70
     1
102
RTVSPropertyOp49
 70
     1
102
RTVSPropertyOp50
 70
     1
102
RTVSPropertyOp51
 70
     0
102
RTVSPropertyOp52
 70
     0
102
RTVSPropertyOp53
 70
     1
102
RTVSPropertyOp54
 70
     1
102
RTVSPropertyOp55
 70
     1
102
RTVSPropertyOp56
 70
     1
102
RTVSPropertyOp57
 70
     1
102
RTVSPost2010Prop28
280
     0
102
RTVSPost2010PropOp28
 70
     1
102
RTVSPost2010Prop29
280
     1
102
RTVSPost2010PropOp29
 70
     1
102
RTVSPost2010Prop30
280
     1
102
RTVSPost2010PropOp30
 70
     1
102
RTVSPost2010Prop31
280
     0
102
RTVSPost2010PropOp31
 70
     1
102
RTVSPost2010Prop32
280
     0
102
RTVSPost2010PropOp32
 70
     1
102
RTVSPost2010Prop33
280
     0
102
RTVSPost2010PropOp33
 70
     1
102
RTVSPost2010Prop34
280
     0
102
RTVSPost2010PropOp34
 70
     1
102
RTVSPost2010Prop35
280
     0
102
RTVSPost2010PropOp35
 70
     1
102
RTVSPost2010Prop36
280
     0
102
RTVSPost2010PropOp36
 70
     1
102
RTVSPost2010Prop37
 90
       50
102
RTVSPost2010PropOp37
 70
     1
102
RTVSPost2010Prop38
140
0.0
102
RTVSPost2010PropOp38
 70
     1
102
RTVSPost2010Prop39
140
1.0
102
RTVSPost2010PropOp39
 70
     1
102
RTVSPost2010Prop40
 90
        0
102
RTVSPost2010PropOp40
 70
     1
102
RTVSPost2010Prop41ColorIndex
 90
       18
102
RTVSPost2010Prop41ColorRGB
 90
        0
102
RTVSPost2010PropOp41
 70
     1
102
RTVSPost2010Prop42
 90
       50
102
RTVSPost2010PropOp42
 70
     1
102
RTVSPost2010Prop43
 90
        3
102
RTVSPost2010PropOp43
 70
     1
102
RTVSPost2010Prop44ColorIndex
 90
        5
102
RTVSPost2010Prop44ColorRGB
 90
      255
102
RTVSPost2010PropOp44
 70
     1
102
RTVSPost2010Prop45
280
     0
102
RTVSPost2010PropOp45
 70
     1
102
RTVSPost2010Prop46
 90
       50
102
RTVSPost2010PropOp46
 70
     1
102
RTVSPost2010Prop47
 90
       50
102
RTVSPost2010PropOp47
 70
     1
102
RTVSPost2010Prop48
 90
       50
102
RTVSPost2010PropOp48
 70
     1
102
RTVSPost2010Prop49
280
     0
102
RTVSPost2010PropOp49
 70
     1
102
RTVSPost2010Prop50
 90
       50
102
RTVSPost2010PropOp50
 70
     1
102
RTVSPost2010Prop51ColorIndex
 90
      256
102
RTVSPost2010Prop51ColorRGB
 90
-16777216
102
RTVSPost2010PropOp51
 70
     0
102
RTVSPost2010Prop52
140
1.0
102
RTVSPost2010PropOp52
 70
     0
102
RTVSPost2010Prop53
 90
        2
102
RTVSPost2010PropOp53
 70
     1
102
RTVSPost2010Prop54
  1
strokes_ogs.tif
102
RTVSPost2010PropOp54
 70
     1
102
RTVSPost2010Prop55
280
     0
102
RTVSPost2010PropOp55
 70
     1
102
RTVSPost2010Prop56
140
1.0
102
RTVSPost2010PropOp56
 70
     1
102
RTVSPost2010Prop57
140
1.0
102
RTVSPost2010PropOp57
 70
     1
  0
XRECORD
  5
20E
102
{ACAD_REACTORS
330
20D
102
}
330
20D
100
AcDbXrecord
280
     1
102
RTVSPropertyOp0
 70
     1
102
RTVSPropertyOp1
 70
     1
102
RTVSPropertyOp2
 70
     1
102
RTVSPropertyOp3
 70
     1
102
RTVSPropertyOp4
 70
     1
102
RTVSPropertyOp5
 70
     1
102
RTVSPropertyOp6
 70
     1
102
RTVSPropertyOp7
 70
     1
102
RTVSPropertyOp8
 70
     1
102
RTVSPropertyOp9
 70
     1
102
RTVSPropertyOp10
 70
     1
102
RTVSPropertyOp11
 70
     1
102
RTVSPropertyOp12
 70
     1
102
RTVSPropertyOp13
 70
     1
102
RTVSPropertyOp14
 70
     1
102
RTVSPropertyOp15
 70
     1
102
RTVSPropertyOp16
 70
     1
102
RTVSPropertyOp17
 70
     1
102
RTVSPropertyOp18
 70
     1
102
RTVSPropertyOp19
 70
     1
102
RTVSPropertyOp20
 70
     1
102
RTVSPropertyOp21
 70
     1
102
RTVSPropertyOp22
 70
     1
102
RTVSPropertyOp23
 70
     1
102
RTVSPropertyOp24
 70
     1
102
RTVSPropertyOp25
 70
     1
102
RTVSPropertyOp26
 70
     1
102
RTVSPropertyOp27
 70
     1
102
RTVSPropertyOp28
 70
     1
102
RTVSPropertyOp29
 70
     1
102
RTVSPropertyOp30
 70
     1
102
RTVSPropertyOp31
 70
     1
102
RTVSPropertyOp32
 70
     1
102
RTVSPropertyOp33
 70
     1
102
RTVSPropertyOp34
 70
     1
102
RTVSPropertyOp35
 70
     1
102
RTVSPropertyOp36
 70
     1
102
RTVSPropertyOp37
 70
     1
102
RTVSPropertyOp38
 70
     1
102
RTVSPropertyOp39
 70
     1
102
RTVSPropertyOp40
 70
     1
102
RTVSPropertyOp41
 70
     1
102
RTVSPropertyOp42
 70
     1
102
RTVSPropertyOp43
 70
     1
102
RTVSPropertyOp44
 70
     1
102
RTVSPropertyOp45
 70
     1
102
RTVSPropertyOp46
 70
     1
102
RTVSPropertyOp47
 70
     1
102
RTVSPropertyOp48
 70
     1
102
RTVSPropertyOp49
 70
     1
102
RTVSPropertyOp50
 70
     1
102
RTVSPropertyOp51
 70
     0
102
RTVSPropertyOp52
 70
     0
102
RTVSPropertyOp53
 70
     1
102
RTVSPropertyOp54
 70
     1
102
RTVSPropertyOp55
 70
     1
102
RTVSPropertyOp56
 70
     1
102
RTVSPropertyOp57
 70
     1
102
RTVSPost2010Prop28
280
     0
102
RTVSPost2010PropOp28
 70
     1
102
RTVSPost2010Prop29
280
     1
102
RTVSPost2010PropOp29
 70
     1
102
RTVSPost2010Prop30
280
     1
102
RTVSPost2010PropOp30
 70
     1
102
RTVSPost2010Prop31
280
     0
102
RTVSPost2010PropOp31
 70
     1
102
RTVSPost2010Prop32
280
     0
102
RTVSPost2010PropOp32
 70
     1
102
RTVSPost2010Prop33
280
     0
102
RTVSPost2010PropOp33
 70
     1
102
RTVSPost2010Prop34
280
     0
102
RTVSPost2010PropOp34
 70
     1
102
RTVSPost2010Prop35
280
     0
102
RTVSPost2010PropOp35
 70
     1
102
RTVSPost2010Prop36
280
     0
102
RTVSPost2010PropOp36
 70
     1
102
RTVSPost2010Prop37
 90
       50
102
RTVSPost2010PropOp37
 70
     1
102
RTVSPost2010Prop38
140
0.0
102
RTVSPost2010PropOp38
 70
     1
102
RTVSPost2010Prop39
140
1.0
102
RTVSPost2010PropOp39
 70
     1
102
RTVSPost2010Prop40
 90
        0
102
RTVSPost2010PropOp40
 70
     1
102
RTVSPost2010Prop41ColorIndex
 90
       18
102
RTVSPost2010Prop41ColorRGB
 90
        0
102
RTVSPost2010PropOp41
 70
     1
102
RTVSPost2010Prop42
 90
       50
102
RTVSPost2010PropOp42
 70
     1
102
RTVSPost2010Prop43
 90
        3
102
RTVSPost2010PropOp43
 70
     1
102
RTVSPost2010Prop44ColorIndex
 90
        5
102
RTVSPost2010Prop44ColorRGB
 90
      255
102
RTVSPost2010PropOp44
 70
     1
102
RTVSPost2010Prop45
280
     0
102
RTVSPost2010PropOp45
 70
     1
102
RTVSPost2010Prop46
 90
       50
102
RTVSPost2010PropOp46
 70
     1
102
RTVSPost2010Prop47
 90
       50
102
RTVSPost2010PropOp47
 70
     1
102
RTVSPost2010Prop48
 90
       50
102
RTVSPost2010PropOp48
 70
     1
102
RTVSPost2010Prop49
280
     0
102
RTVSPost2010PropOp49
 70
     1
102
RTVSPost2010Prop50
 90
       50
102
RTVSPost2010PropOp50
 70
     1
102
RTVSPost2010Prop51ColorIndex
 90
      256
102
RTVSPost2010Prop51ColorRGB
 90
-16777216
102
RTVSPost2010PropOp51
 70
     0
102
RTVSPost2010Prop52
140
1.0
102
RTVSPost2010PropOp52
 70
     0
102
RTVSPost2010Prop53
 90
        2
102
RTVSPost2010PropOp53
 70
     1
102
RTVSPost2010Prop54
  1
strokes_ogs.tif
102
RTVSPost2010PropOp54
 70
     1
102
RTVSPost2010Prop55
280
     0
102
RTVSPost2010PropOp55
 70
     1
102
RTVSPost2010Prop56
140
1.0
102
RTVSPost2010PropOp56
 70
     1
102
RTVSPost2010Prop57
140
1.0
102
RTVSPost2010PropOp57
 70
     1
  0
XRECORD
  5
200
102
{ACAD_REACTORS
330
1FF
102
}
330
1FF
100
AcDbXrecord
280
     1
102
RTVSPropertyOp0
 70
     1
102
RTVSPropertyOp1
 70
     1
102
RTVSPropertyOp2
 70
     1
102
RTVSPropertyOp3
 70
     1
102
RTVSPropertyOp4
 70
     1
102
RTVSPropertyOp5
 70
     1
102
RTVSPropertyOp6
 70
     1
102
RTVSPropertyOp7
 70
     1
102
RTVSPropertyOp8
 70
     1
102
RTVSPropertyOp9
 70
     1
102
RTVSPropertyOp10
 70
     1
102
RTVSPropertyOp11
 70
     1
102
RTVSPropertyOp12
 70
     1
102
RTVSPropertyOp13
 70
     1
102
RTVSPropertyOp14
 70
     1
102
RTVSPropertyOp15
 70
     1
102
RTVSPropertyOp16
 70
     1
102
RTVSPropertyOp17
 70
     1
102
RTVSPropertyOp18
 70
     1
102
RTVSPropertyOp19
 70
     1
102
RTVSPropertyOp20
 70
     1
102
RTVSPropertyOp21
 70
     1
102
RTVSPropertyOp22
 70
     1
102
RTVSPropertyOp23
 70
     1
102
RTVSPropertyOp24
 70
     1
102
RTVSPropertyOp25
 70
     1
102
RTVSPropertyOp26
 70
     1
102
RTVSPropertyOp27
 70
     1
102
RTVSPropertyOp28
 70
     1
102
RTVSPropertyOp29
 70
     1
102
RTVSPropertyOp30
 70
     1
102
RTVSPropertyOp31
 70
     1
102
RTVSPropertyOp32
 70
     1
102
RTVSPropertyOp33
 70
     1
102
RTVSPropertyOp34
 70
     1
102
RTVSPropertyOp35
 70
     1
102
RTVSPropertyOp36
 70
     1
102
RTVSPropertyOp37
 70
     1
102
RTVSPropertyOp38
 70
     1
102
RTVSPropertyOp39
 70
     1
102
RTVSPropertyOp40
 70
     1
102
RTVSPropertyOp41
 70
     1
102
RTVSPropertyOp42
 70
     1
102
RTVSPropertyOp43
 70
     1
102
RTVSPropertyOp44
 70
     1
102
RTVSPropertyOp45
 70
     1
102
RTVSPropertyOp46
 70
     1
102
RTVSPropertyOp47
 70
     1
102
RTVSPropertyOp48
 70
     1
102
RTVSPropertyOp49
 70
     1
102
RTVSPropertyOp50
 70
     1
102
RTVSPropertyOp51
 70
     0
102
RTVSPropertyOp52
 70
     0
102
RTVSPropertyOp53
 70
     1
102
RTVSPropertyOp54
 70
     1
102
RTVSPropertyOp55
 70
     1
102
RTVSPropertyOp56
 70
     1
102
RTVSPropertyOp57
 70
     1
102
RTVSPost2010Prop28
280
     0
102
RTVSPost2010PropOp28
 70
     1
102
RTVSPost2010Prop29
280
     1
102
RTVSPost2010PropOp29
 70
     1
102
RTVSPost2010Prop30
280
     1
102
RTVSPost2010PropOp30
 70
     1
102
RTVSPost2010Prop31
280
     0
102
RTVSPost2010PropOp31
 70
     1
102
RTVSPost2010Prop32
280
     0
102
RTVSPost2010PropOp32
 70
     1
102
RTVSPost2010Prop33
280
     0
102
RTVSPost2010PropOp33
 70
     1
102
RTVSPost2010Prop34
280
     0
102
RTVSPost2010PropOp34
 70
     1
102
RTVSPost2010Prop35
280
     0
102
RTVSPost2010PropOp35
 70
     1
102
RTVSPost2010Prop36
280
     0
102
RTVSPost2010PropOp36
 70
     1
102
RTVSPost2010Prop37
 90
       50
102
RTVSPost2010PropOp37
 70
     1
102
RTVSPost2010Prop38
140
0.0
102
RTVSPost2010PropOp38
 70
     1
102
RTVSPost2010Prop39
140
1.0
102
RTVSPost2010PropOp39
 70
     1
102
RTVSPost2010Prop40
 90
        0
102
RTVSPost2010PropOp40
 70
     1
102
RTVSPost2010Prop41ColorIndex
 90
       18
102
RTVSPost2010Prop41ColorRGB
 90
        0
102
RTVSPost2010PropOp41
 70
     1
102
RTVSPost2010Prop42
 90
       50
102
RTVSPost2010PropOp42
 70
     1
102
RTVSPost2010Prop43
 90
        3
102
RTVSPost2010PropOp43
 70
     1
102
RTVSPost2010Prop44ColorIndex
 90
        5
102
RTVSPost2010Prop44ColorRGB
 90
      255
102
RTVSPost2010PropOp44
 70
     1
102
RTVSPost2010Prop45
280
     0
102
RTVSPost2010PropOp45
 70
     1
102
RTVSPost2010Prop46
 90
       50
102
RTVSPost2010PropOp46
 70
     1
102
RTVSPost2010Prop47
 90
       50
102
RTVSPost2010PropOp47
 70
     1
102
RTVSPost2010Prop48
 90
       50
102
RTVSPost2010PropOp48
 70
     1
102
RTVSPost2010Prop49
280
     0
102
RTVSPost2010PropOp49
 70
     1
102
RTVSPost2010Prop50
 90
       50
102
RTVSPost2010PropOp50
 70
     1
102
RTVSPost2010Prop51ColorIndex
 90
      256
102
RTVSPost2010Prop51ColorRGB
 90
-16777216
102
RTVSPost2010PropOp51
 70
     0
102
RTVSPost2010Prop52
140
1.0
102
RTVSPost2010PropOp52
 70
     0
102
RTVSPost2010Prop53
 90
        2
102
RTVSPost2010PropOp53
 70
     1
102
RTVSPost2010Prop54
  1
strokes_ogs.tif
102
RTVSPost2010PropOp54
 70
     1
102
RTVSPost2010Prop55
280
     0
102
RTVSPost2010PropOp55
 70
     1
102
RTVSPost2010Prop56
140
1.0
102
RTVSPost2010PropOp56
 70
     1
102
RTVSPost2010Prop57
140
1.0
102
RTVSPost2010PropOp57
 70
     1
  0
XRECORD
  5
220
102
{ACAD_REACTORS
330
21F
102
}
330
21F
100
AcDbXrecord
280
     1
102
RTVSPropertyOp0
 70
     1
102
RTVSPropertyOp1
 70
     1
102
RTVSPropertyOp2
 70
     1
102
RTVSPropertyOp3
 70
     1
102
RTVSPropertyOp4
 70
     1
102
RTVSPropertyOp5
 70
     1
102
RTVSPropertyOp6
 70
     1
102
RTVSPropertyOp7
 70
     1
102
RTVSPropertyOp8
 70
     1
102
RTVSPropertyOp9
 70
     1
102
RTVSPropertyOp10
 70
     1
102
RTVSPropertyOp11
 70
     1
102
RTVSPropertyOp12
 70
     1
102
RTVSPropertyOp13
 70
     1
102
RTVSPropertyOp14
 70
     1
102
RTVSPropertyOp15
 70
     1
102
RTVSPropertyOp16
 70
     1
102
RTVSPropertyOp17
 70
     1
102
RTVSPropertyOp18
 70
     1
102
RTVSPropertyOp19
 70
     1
102
RTVSPropertyOp20
 70
     1
102
RTVSPropertyOp21
 70
     1
102
RTVSPropertyOp22
 70
     1
102
RTVSPropertyOp23
 70
     1
102
RTVSPropertyOp24
 70
     1
102
RTVSPropertyOp25
 70
     1
102
RTVSPropertyOp26
 70
     1
102
RTVSPropertyOp27
 70
     1
102
RTVSPropertyOp28
 70
     1
102
RTVSPropertyOp29
 70
     1
102
RTVSPropertyOp30
 70
     1
102
RTVSPropertyOp31
 70
     1
102
RTVSPropertyOp32
 70
     1
102
RTVSPropertyOp33
 70
     1
102
RTVSPropertyOp34
 70
     1
102
RTVSPropertyOp35
 70
     1
102
RTVSPropertyOp36
 70
     1
102
RTVSPropertyOp37
 70
     1
102
RTVSPropertyOp38
 70
     1
102
RTVSPropertyOp39
 70
     1
102
RTVSPropertyOp40
 70
     1
102
RTVSPropertyOp41
 70
     1
102
RTVSPropertyOp42
 70
     1
102
RTVSPropertyOp43
 70
     1
102
RTVSPropertyOp44
 70
     1
102
RTVSPropertyOp45
 70
     1
102
RTVSPropertyOp46
 70
     1
102
RTVSPropertyOp47
 70
     1
102
RTVSPropertyOp48
 70
     1
102
RTVSPropertyOp49
 70
     1
102
RTVSPropertyOp50
 70
     1
102
RTVSPropertyOp51
 70
     0
102
RTVSPropertyOp52
 70
     0
102
RTVSPropertyOp53
 70
     1
102
RTVSPropertyOp54
 70
     1
102
RTVSPropertyOp55
 70
     1
102
RTVSPropertyOp56
 70
     1
102
RTVSPropertyOp57
 70
     1
102
RTVSPost2010Prop28
280
     0
102
RTVSPost2010PropOp28
 70
     1
102
RTVSPost2010Prop29
280
     1
102
RTVSPost2010PropOp29
 70
     1
102
RTVSPost2010Prop30
280
     1
102
RTVSPost2010PropOp30
 70
     1
102
RTVSPost2010Prop31
280
     0
102
RTVSPost2010PropOp31
 70
     1
102
RTVSPost2010Prop32
280
     0
102
RTVSPost2010PropOp32
 70
     1
102
RTVSPost2010Prop33
280
     0
102
RTVSPost2010PropOp33
 70
     1
102
RTVSPost2010Prop34
280
     0
102
RTVSPost2010PropOp34
 70
     1
102
RTVSPost2010Prop35
280
     0
102
RTVSPost2010PropOp35
 70
     1
102
RTVSPost2010Prop36
280
     0
102
RTVSPost2010PropOp36
 70
     1
102
RTVSPost2010Prop37
 90
       50
102
RTVSPost2010PropOp37
 70
     1
102
RTVSPost2010Prop38
140
0.0
102
RTVSPost2010PropOp38
 70
     1
102
RTVSPost2010Prop39
140
1.0
102
RTVSPost2010PropOp39
 70
     1
102
RTVSPost2010Prop40
 90
        0
102
RTVSPost2010PropOp40
 70
     1
102
RTVSPost2010Prop41ColorIndex
 90
       18
102
RTVSPost2010Prop41ColorRGB
 90
        0
102
RTVSPost2010PropOp41
 70
     1
102
RTVSPost2010Prop42
 90
       50
102
RTVSPost2010PropOp42
 70
     1
102
RTVSPost2010Prop43
 90
        3
102
RTVSPost2010PropOp43
 70
     1
102
RTVSPost2010Prop44ColorIndex
 90
        5
102
RTVSPost2010Prop44ColorRGB
 90
      255
102
RTVSPost2010PropOp44
 70
     1
102
RTVSPost2010Prop45
280
     0
102
RTVSPost2010PropOp45
 70
     1
102
RTVSPost2010Prop46
 90
       50
102
RTVSPost2010PropOp46
 70
     1
102
RTVSPost2010Prop47
 90
       50
102
RTVSPost2010PropOp47
 70
     1
102
RTVSPost2010Prop48
 90
       50
102
RTVSPost2010PropOp48
 70
     1
102
RTVSPost2010Prop49
280
     0
102
RTVSPost2010PropOp49
 70
     1
102
RTVSPost2010Prop50
 90
       50
102
RTVSPost2010PropOp50
 70
     1
102
RTVSPost2010Prop51ColorIndex
 90
      256
102
RTVSPost2010Prop51ColorRGB
 90
-16777216
102
RTVSPost2010PropOp51
 70
     0
102
RTVSPost2010Prop52
140
1.0
102
RTVSPost2010PropOp52
 70
     0
102
RTVSPost2010Prop53
 90
        2
102
RTVSPost2010PropOp53
 70
     1
102
RTVSPost2010Prop54
  1
strokes_ogs.tif
102
RTVSPost2010PropOp54
 70
     1
102
RTVSPost2010Prop55
280
     0
102
RTVSPost2010PropOp55
 70
     1
102
RTVSPost2010Prop56
140
1.0
102
RTVSPost2010PropOp56
 70
     1
102
RTVSPost2010Prop57
140
1.0
102
RTVSPost2010PropOp57
 70
     1
  0
ENDSEC
  0
EOF
